<?xml version="1.0" standalone="no"?>
<!DOCTYPE svg PUBLIC "-//W3C//DTD SVG 1.1//EN" "http://www.w3.org/Graphics/SVG/1.1/DTD/svg11.dtd">
<svg xmlns="http://www.w3.org/2000/svg">
<defs >
<font id="PlayfairDisplay" horiz-adv-x="578" ><font-face
    font-family="Playfair Display"
    units-per-em="1000"
    panose-1="0 0 5 0 0 0 0 0 0 0"
    ascent="1082"
    descent="-251"
    alphabetic="0" />
<glyph unicode=" " glyph-name="space" horiz-adv-x="253" />
<glyph unicode="!" glyph-name="exclam" horiz-adv-x="263" d="M115 278T130 357T162 543Q165 563 177 632T201 743Q206 762 218 772T246 782Q268 782 280 771T292 742Q292 729 288 720Q275 675 232 559Q193 456 164 370T112 196L94 199Q115 278 130 357ZM7 67T29
90T81 114Q104 114 118 99T132 62Q132 32 109 9T57 -14Q35 -14 21 0T7 37Q7 67 29 90Z" />
<glyph unicode="&quot;" glyph-name="quotedbl" horiz-adv-x="296" d="M233 679T226 661T200 610Q174 565 154 518H140Q147 571 151 618Q154 661 160 688Q165 709 176 719T202 730Q218 730 225 721T233 697Q233 679 226 661ZM342 679T335 661T309 610Q283 565
263 518H249Q256 571 260 618Q263 661 269 688Q274 709 285 719T311 730Q327 730 334 721T342 697Q342 679 335 661Z" />
<glyph unicode="#" glyph-name="numbersign" horiz-adv-x="639" d="M481 434L404 267H547L537 247H395L327 101H303L371 247H208L140 101H116L184 247H37L46 267H193L270 434H124L132 454H279L348 602H372L303 454H466L535 602H559L490 454H633L625 434H481ZM457
434H294L217 267H380L457 434Z" />
<glyph unicode="$" glyph-name="dollar" horiz-adv-x="551" d="M537 649T553 620T570 559Q570 527 554 504T510 480Q485 480 472 499T459 545Q459 574 469 598T498 651Q476 673 441 688L354 374Q409 323 439 279T469 182Q469 122 437 80T355 15T246 -13L213 -132H191L224
-14H216Q174 -14 144 -5L109 -132H87L124 1Q95 12 76 27T53 44Q31 61 16 89T1 149Q1 181 17 204T61 228Q86 228 99 209T112 163Q112 134 102 110T73 57Q96 34 130 21L221 351Q180 393 158 433T135 527Q135 610 190 660T324 720L357 840H379L346 722H355Q394 722
426 714L461 840H483L446 707Q466 700 480 691T505 674T518 664Q537 649 553 620ZM421 694Q391 703 356 703H341L272 454Q296 428 336 391L421 694ZM216 527T255 474L318 700Q271 691 244 660T216 576Q216 527 255 474ZM229 6L303 271Q288 288 255 318L238 334L150
15Q180 6 219 6H229ZM366 193T320 251L252 8Q306 15 336 45T366 131Q366 193 320 251Z" />
<glyph unicode="%" glyph-name="percent" horiz-adv-x="766" d="M839 811L6 -55L-9 -42L824 824L839 811ZM112 587T139 640T214 727T319 761Q372 761 401 734T430 657Q430 604 403 551T329 464T224 430Q171 430 142 457T112 534Q112 587 139 640ZM271 743T241
703T195 609T179 515Q179 448 231 448Q271 448 301 488T347 582T363 677Q363 710 350 726T311 743Q271 743 241 703ZM376 143T403 196T478 283T583 317Q636 317 665 290T694 213Q694 160 667 107T593 20T488 -14Q435 -14 406 13T376 90Q376 143 403 196ZM535 299T505
259T459 165T443 71Q443 4 495 4Q535 4 565 44T611 138T627 233Q627 266 614 282T575 299Q535 299 505 259Z" />
<glyph unicode="&amp;" glyph-name="ampersand" horiz-adv-x="817" d="M801 722T834 694T868 608Q868 557 839 518T746 447Q702 425 586 383Q659 322 659 233Q659 166 619 110T504 20T326 -14Q193 -14 116 42T38 197Q38 285 98 353T253 448Q219 466 201 496T183
560Q183 604 212 636T288 685T381 702Q437 702 470 678T504 615Q504 579 478 560T419 540L421 558Q449 558 466 572T483 613Q483 646 456 666T386 686Q325 686 285 644T245 537Q245 491 267 454Q303 460 330 460Q366 460 366 439Q366 429 357 424T335 418Q310 418
266 440Q198 420 156 366T113 243Q113 156 182 108T364 60Q441 60 504 83T603 148T639 246Q639 282 622 317T572 377L445 330Q400 313 370 290T340 231Q340 200 364 182T425 164Q464 164 489 183T527 223L540 214Q500 148 421 148Q375 148 344 171T313 246Q313
304 354 342T479 411L528 429Q579 447 640 469T738 510Q787 533 814 559T841 621Q841 658 813 682T742 707Q716 707 710 698Q720 692 725 682T731 660Q731 637 711 620T665 603Q645 603 633 614T620 645Q620 666 634 682T670 708Q702 722 743 722Q801 722 834 694Z"
/>
<glyph unicode="&apos;" glyph-name="quotesingle" horiz-adv-x="187" d="M233 679T226 661T200 610Q174 565 154 518H140Q147 571 151 618Q154 661 160 688Q165 709 176 719T202 730Q218 730 225 721T233 697Q233 679 226 661Z" />
<glyph unicode="(" glyph-name="parenleft" horiz-adv-x="361" d="M123 -87T81 6T38 223Q38 331 94 439T248 642T471 806L481 793Q305 675 210 534T115 212Q115 -14 225 -169L207 -182Q123 -87 81 6Z" />
<glyph unicode=")" glyph-name="parenright" horiz-adv-x="361" d="M247 711T289 618T332 401Q332 293 276 185T122 -18T-101 -182L-111 -169Q65 -51 160 90T255 412Q255 638 145 793L163 806Q247 711 289 618Z" />
<glyph unicode="*" glyph-name="asterisk" horiz-adv-x="495" d="M512 617T512 614Q512 602 502 589T469 565Q450 556 423 548T365 533L310 519Q355 506 365 503Q391 495 414 488T449 472Q473 457 473 436Q473 423 464 412Q453 396 433 396Q418 396 400 408Q387
416 376 428T346 464Q325 491 308 510L311 446Q313 408 313 394Q313 381 311 361Q304 333 290 320T260 307Q249 307 242 314T234 339Q234 349 237 361Q240 381 251 405T284 474L304 515H303Q287 502 274 491T251 472Q226 451 204 434T165 407Q143 396 126 396Q106
396 99 413Q97 419 97 422Q97 447 140 471Q158 480 185 487T242 503Q282 512 298 517Q289 520 242 534Q209 543 191 549T160 564Q136 579 136 600Q136 614 145 624Q156 640 176 640Q191 640 209 628Q222 620 233 608T264 571Q291 537 304 522Q302 542 302 550Q296
620 296 639Q296 659 299 675Q305 703 319 716T348 729Q360 729 367 721T375 697Q375 687 372 675Q369 657 361 637T334 578Q327 564 309 524Q320 533 333 543T359 565Q383 585 405 602T444 629Q466 640 483 640Q503 640 510 623Q512 617 512 614Z" />
<glyph unicode="+" glyph-name="plus" horiz-adv-x="585" d="M296 370L363 606H399L332 370H564L555 340H323L256 105H220L287 340H54L63 370H296Z" />
<glyph unicode="," glyph-name="comma" horiz-adv-x="252" d="M129 2T90 -49T-18 -134L-23 -120Q24 -91 52 -57T83 11Q54 -14 31 -14Q13 -14 3 -5T-7 21Q-7 42 6 64T41 100T85 114Q107 114 118 97T129 55Q129 2 90 -49Z" />
<glyph unicode="-" glyph-name="hyphen" horiz-adv-x="504" d="M429 283L414 225H53L68 283H429Z" />
<glyph unicode="." glyph-name="period" horiz-adv-x="244" d="M-1 67T21 90T73 114Q96 114 110 99T124 62Q124 32 101 9T49 -14Q27 -14 13 0T-1 37Q-1 67 21 90Z" />
<glyph unicode="/" glyph-name="slash" horiz-adv-x="468" d="M508 722H541L-7 -14H-40L508 722Z" />
<glyph unicode="0" glyph-name="zero" horiz-adv-x="565" d="M432 529T472 483T513 352Q513 263 470 178T353 40T195 -14Q118 -14 75 32T31 164Q31 253 76 338T197 476T356 529Q432 529 472 483ZM283 511T234 461T154 328T123 155Q123 4 214 4Q270 4 317 57T393
194T421 367Q421 444 399 477T337 511Q283 511 234 461Z" />
<glyph unicode="1" glyph-name="one" horiz-adv-x="342" d="M159 0H72L200 433Q142 400 50 372L53 393Q136 418 186 449T294 526H314L159 0Z" />
<glyph unicode="2" glyph-name="two" horiz-adv-x="503" d="M366 528T402 502T439 429Q439 380 400 330T307 237T178 142Q122 103 103 87Q130 87 206 73Q284 59 315 59Q384 59 384 107Q384 144 340 164L353 177Q408 151 408 98Q408 55 377 25T283 -6Q262 -6 242
-3T193 8Q162 16 138 20T86 24Q57 24 34 19T-21 0L-16 21Q-5 30 16 44T49 68Q135 129 195 178T302 291T348 418Q348 459 328 482T271 506Q235 506 195 482T127 421T100 345Q100 320 113 309T158 297Q184 297 204 306T250 338L262 324Q236 299 207 288T151 276Q120
276 98 291T76 344Q76 388 107 431T191 501T304 528Q366 528 402 502Z" />
<glyph unicode="3" glyph-name="three" horiz-adv-x="485" d="M365 531T401 505T438 432Q438 389 407 352T327 289T231 250Q301 248 346 219T391 136Q391 50 316 -15T130 -114T-80 -151L-75 -133Q11 -128 97 -95T240 0T298 143Q298 183 276 207T213 234Q197 227
182 222T155 217Q133 217 138 232Q142 251 186 251L205 250Q267 274 309 319T352 419Q352 461 330 485T270 509Q236 509 198 490T135 440T109 378Q109 353 122 342T167 330Q200 330 229 345L240 330Q201 309 160 309Q129 309 107 324T85 377Q85 413 115 449T195
508T303 531Q365 531 401 505Z" />
<glyph unicode="4" glyph-name="four" horiz-adv-x="515" d="M418 34H285L238 -141H151L198 34H-51L-45 55L391 529H417L300 91H434L418 34ZM213 91L295 398L14 91H213Z" />
<glyph unicode="5" glyph-name="five" horiz-adv-x="459" d="M439 531Q388 421 302 421Q280 421 246 440Q243 442 231 447T208 455T191 456L79 227Q111 244 144 252T219 261Q296 261 334 230T372 147Q372 55 299 -10T120 -110T-81 -148L-76 -130Q5 -129 87 -97T223
-2T277 145Q277 185 251 208T172 231Q120 231 61 204L51 209L201 518Q231 519 266 507Q306 493 344 493Q401 493 427 538L439 531Z" />
<glyph unicode="6" glyph-name="six" horiz-adv-x="527" d="M530 702Q434 679 341 597T187 394T127 137Q127 64 145 35T199 6Q252 6 293 55T356 175T379 308Q379 409 314 409Q281 409 250 381T196 287L180 293Q205 371 250 404T347 438Q404 438 438 399T473 288Q473
211 433 141T326 29T183 -14Q108 -14 72 31T36 165Q36 307 116 428T312 626T524 722L530 702Z" />
<glyph unicode="7" glyph-name="seven" horiz-adv-x="487" d="M541 514Q518 482 447 401Q381 325 337 268T252 137T190 -18Q186 -32 178 -71L173 -97Q167 -119 151 -133T111 -148Q80 -148 80 -114Q80 -108 82 -92Q93 -28 140 49T246 198T389 364Q452 434 479 468Q416
426 333 426Q305 426 283 430T233 442Q188 455 159 455Q120 455 97 438T73 388Q73 346 107 318T212 273L206 258Q49 288 49 399Q49 429 64 457T111 502T190 520Q220 520 244 514T308 495Q343 482 367 476T421 470Q452 470 474 479T515 514H541Z" />
<glyph unicode="8" glyph-name="eight" horiz-adv-x="544" d="M537 502T339 396Q379 358 402 332T441 270T458 193Q458 131 422 84T324 12T187 -14Q106 -14 58 18T10 115Q10 197 80 262T249 370Q204 414 181 451T157 538Q157 592 191 634T281 699T396 722Q459
722 498 696T537 616Q537 502 339 396ZM382 443T419 500T456 619Q456 704 378 704Q341 704 309 686T259 634T240 560Q240 518 262 483T328 407Q382 443 419 500ZM369 211T355 243T319 299T261 359Q189 319 144 250T98 106Q98 58 120 31T196 4Q241 4 281 24T345
82T369 172Q369 211 355 243Z" />
<glyph unicode="9" glyph-name="nine" horiz-adv-x="513" d="M394 528T430 483T466 349Q466 212 388 95T196 -96T-12 -188L-18 -168Q76 -146 167 -67T316 129T375 377Q375 450 357 479T303 508Q250 508 209 459T146 339T123 206Q123 105 188 105Q221 105 252 133T306
227L322 221Q297 143 252 110T155 76Q98 76 64 115T29 226Q29 303 69 373T176 485T319 528Q394 528 430 483Z" />
<glyph unicode=":" glyph-name="colon" horiz-adv-x="278" d="M116 481T138 504T190 528Q213 528 227 513T241 476Q241 446 218 423T166 400Q144 400 130 414T116 451Q116 481 138 504ZM16 67T38 90T90 114Q113 114 127 99T141 62Q141 32 118 9T66 -14Q44 -14
30 0T16 37Q16 67 38 90Z" />
<glyph unicode=";" glyph-name="semicolon" horiz-adv-x="287" d="M117 481T139 504T191 528Q214 528 228 513T242 476Q242 446 219 423T167 400Q145 400 131 414T117 451Q117 481 139 504ZM149 2T110 -49T2 -134L-3 -120Q44 -91 72 -57T103 11Q74 -14 51 -14Q33
-14 23 -5T13 21Q13 42 26 64T61 100T105 114Q127 114 138 97T149 55Q149 2 110 -49Z" />
<glyph unicode="&lt;" glyph-name="less" horiz-adv-x="602" d="M613 553L126 351L457 177L441 145L51 355L603 582L613 553Z" />
<glyph unicode="=" glyph-name="equal" horiz-adv-x="663" d="M119 440H620L611 410H110L119 440ZM79 300H580L571 270H70L79 300Z" />
<glyph unicode="&gt;" glyph-name="greater" horiz-adv-x="602" d="M52 184L512 376L142 574L158 603L587 372L62 155L52 184Z" />
<glyph unicode="?" glyph-name="question" horiz-adv-x="438" d="M278 765T247 752T207 716Q216 714 224 703T232 676Q232 655 217 641T179 627Q159 627 149 638T139 669Q139 701 166 727T237 767T327 782Q394 782 434 751T475 664Q475 616 439 567T310 446Q304
441 257 406Q195 361 172 336T149 274Q149 244 166 225T220 205Q250 205 278 217T316 249Q306 250 298 260T290 284Q290 300 303 312T335 325Q350 325 359 317T369 290Q369 260 343 237T278 201T201 188Q149 188 118 213T86 285Q86 321 105 352T155 410T241 477L272
500Q346 556 374 591T402 671Q402 714 379 739T311 765Q278 765 247 752ZM107 67T129 90T181 114Q204 114 218 99T232 62Q232 32 209 9T157 -14Q135 -14 121 0T107 37Q107 67 129 90Z" />
<glyph unicode="@" glyph-name="at" horiz-adv-x="848" d="M462 26T462 91Q462 112 471 146Q441 84 406 55T323 26Q269 26 245 59T220 147Q220 221 259 299T359 427T480 478Q540 478 546 414L560 464Q617 464 650 478L544 111Q538 90 538 77Q538 63 545 57T567
51Q605 51 662 93T761 214T804 394Q804 525 723 587T513 650Q393 650 286 581T114 395T49 145Q49 -2 130 -72T349 -143Q465 -143 555 -89L562 -102Q523 -129 468 -145T348 -161Q202 -161 116 -86T29 143Q29 277 94 398T270 593T512 668Q652 668 738 600T824 393Q824
287 778 203T663 73T534 26Q462 26 462 91ZM394 56T429 107T504 264L538 385Q537 422 524 438T484 455Q437 455 396 410T330 294T305 153Q305 56 357 56Q394 56 429 107Z" />
<glyph unicode="A" glyph-name="A" horiz-adv-x="629" d="M507 51T521 36T553 20L549 0Q509 3 440 3Q359 3 320 0L324 20Q358 22 376 28T403 52T410 104L401 268H155L80 162Q33 96 33 63Q33 22 107 20L102 0Q47 3 -12 3Q-55 3 -87 0L-82 20Q-36 30 18 107L449
713H464L504 84Q507 51 521 36ZM400 288L383 591L169 288H400Z" />
<glyph unicode="B" glyph-name="B" horiz-adv-x="632" d="M482 360T520 317T559 211Q559 143 516 96T405 24T261 0L188 1Q128 3 89 3Q9 3 -33 0L-29 20Q7 22 25 28T53 51T74 106L206 602Q214 632 214 650Q214 669 200 678T147 688L152 708Q192 705 271 705Q316
705 339 706L412 707Q505 707 552 673T600 579Q600 507 541 454T395 374Q482 360 520 317ZM238 376H304Q363 376 407 403T476 475T501 572Q501 631 475 659T393 688Q349 688 331 674T302 617L238 376ZM345 23T402 74T459 226Q459 359 316 359H234L167 106Q158 70
158 57Q158 39 171 31T218 23Q345 23 402 74Z" />
<glyph unicode="C" glyph-name="C" horiz-adv-x="670" d="M679 622T648 478H626Q632 517 632 547Q632 595 616 626Q598 663 563 683T485 704Q402 704 325 626T199 430T151 200Q151 104 189 54T294 4Q338 4 387 24T472 82Q498 108 517 142T562 240H584Q537 67 525
0H503Q506 21 506 34Q506 60 494 60Q487 60 473 51Q421 17 382 2T284 -14Q173 -14 112 46T51 221Q51 336 108 453T266 646T487 722Q545 722 575 706T636 657Q643 648 651 648Q660 648 669 662T691 708H712Q679 622 648 478Z" />
<glyph unicode="D" glyph-name="D" horiz-adv-x="725" d="M704 362T642 250T472 69T230 0L172 1Q116 3 90 3Q9 3 -30 0L-27 20Q7 22 24 28T52 51T73 106L204 602Q213 640 213 651Q213 671 199 679T146 688L149 708Q183 705 246 705L331 706Q399 708 422 708Q563
708 633 652T704 487Q704 362 642 250ZM342 18T430 85T563 266T608 512Q608 603 557 646T394 690Q363 690 346 683T317 658T297 604L166 104Q157 68 157 55Q157 36 170 27T218 18Q342 18 430 85Z" />
<glyph unicode="E" glyph-name="E" horiz-adv-x="610" d="M583 705T642 708Q616 636 604 590Q593 554 590 528H567Q576 586 576 608Q576 651 554 668T475 685H402Q366 685 349 680T320 657T299 602L236 366H302Q337 366 360 382T396 421T422 477Q425 487 430 498H453Q432
432 418 379L412 356Q398 303 380 214H357L360 234Q361 241 363 256T365 282Q365 312 350 329T296 346H230L166 106Q157 75 157 57Q157 36 172 30T225 23H298Q360 23 397 39T458 92T509 200H532Q521 171 510 128Q494 72 483 0Q415 3 254 3Q62 3 -35 0L-30 20Q6
22 23 28T52 51T73 106L206 602Q215 634 215 651Q215 672 201 679T148 688L153 708Q251 705 443 705Q583 705 642 708Z" />
<glyph unicode="F" glyph-name="F" horiz-adv-x="566" d="M583 705T642 708Q617 637 601 580Q591 543 582 498H559Q570 562 570 598Q570 646 545 665T455 685H402Q366 685 349 680T320 657T299 602L233 356H306Q357 356 382 386T418 448T434 488H457Q436 422 422
369L416 346Q400 280 384 204H361L364 226Q369 253 369 273Q369 303 354 319T301 336H228L166 106Q158 76 158 62Q158 38 176 30T244 20L239 0Q187 3 92 3Q7 3 -35 0L-30 20Q6 22 23 28T52 51T73 106L206 602Q215 634 215 651Q215 672 201 679T148 688L153 708Q251
705 443 705Q583 705 642 708Z" />
<glyph unicode="G" glyph-name="G" horiz-adv-x="705" d="M349 6T378 15T430 37Q450 49 460 64T476 100L499 188Q508 221 508 240Q508 265 490 273T424 284L429 304Q482 301 569 301Q638 301 674 304L669 284Q645 282 634 276T614 254T595 198L542 0H522Q525 12
525 26Q525 57 510 57Q504 57 497 54T472 40Q430 14 389 0T302 -14Q180 -14 115 45T50 215Q50 331 106 449T263 644T488 722Q548 722 583 706T652 657Q661 648 669 648Q679 648 688 662T709 708H731Q698 622 667 478H645Q650 521 650 553Q650 599 636 626Q615 663
574 683T482 704Q379 704 302 617T184 407T143 182Q143 92 185 49T316 6Q349 6 378 15Z" />
<glyph unicode="H" glyph-name="H" horiz-adv-x="755" d="M777 705T820 708L815 688Q778 686 761 680T733 657T712 602L580 106Q571 68 571 57Q571 36 585 29T639 20L635 0Q593 3 507 3Q427 3 380 0L384 20Q420 22 438 28T466 51T487 106L551 346H230L166 106Q157
68 157 57Q157 36 171 29T225 20L221 0Q175 3 94 3Q10 3 -33 0L-28 20Q7 22 24 28T52 51T73 106L205 602Q213 636 213 650Q213 672 199 679T146 688L151 708Q192 705 278 705Q358 705 406 708L401 688Q364 686 347 680T319 657T298 602L235 366H556L619 602Q628
634 628 650Q628 672 613 679T560 688L565 708Q610 705 691 705Q777 705 820 708Z" />
<glyph unicode="I" glyph-name="I" horiz-adv-x="341" d="M157 68T157 57Q157 36 171 29T225 20L221 0Q175 3 94 3Q10 3 -33 0L-28 20Q7 22 24 28T52 51T73 106L205 602Q213 636 213 650Q213 672 199 679T146 688L151 708Q192 705 278 705Q358 705 406 708L401
688Q364 686 347 680T319 657T298 602L166 106Q157 68 157 57Z" />
<glyph unicode="J" glyph-name="J" horiz-adv-x="636" d="M743 724T743 718Q743 694 670 666Q530 573 462 366H561L558 346H456Q448 320 445 307L383 65Q354 -47 295 -117T147 -188Q100 -188 73 -174T45 -131Q45 -109 61 -92T100 -74Q118 -74 130 -86T142 -116Q142
-132 131 -145T102 -167Q117 -172 137 -172Q182 -172 211 -138T258 -53T298 88Q302 107 312 145L342 262Q355 310 370 346H237L240 366H378Q420 457 485 523T653 663Q537 603 455 603Q423 603 397 610T333 631Q294 645 268 652T209 659Q177 659 161 643T144 598Q144
534 218 520L215 500Q168 508 137 537T105 623Q105 674 136 706T221 739Q258 739 287 725T354 685Q392 658 420 645T484 632Q530 632 566 642T661 677Q699 735 724 735Q732 735 737 730Q743 724 743 718Z" />
<glyph unicode="K" glyph-name="K" horiz-adv-x="675" d="M678 722T692 707T707 668Q707 646 693 623T649 599Q629 599 620 610T610 639Q610 653 619 670T642 701H639Q619 700 603 687Q586 672 575 647T545 571Q524 512 505 474T453 406T370 369Q407 361 429 348T463
301T473 205L469 92Q468 66 473 54T499 41Q524 41 541 59T573 119L590 170H610L584 93Q565 38 535 12T462 -14Q370 -14 378 102L385 215Q386 228 386 251Q386 297 377 320T349 358Q312 349 292 349Q261 349 261 369Q261 389 291 389Q313 389 352 379Q403 385 435
413T485 479T524 575Q542 627 555 654T588 699Q617 722 648 722Q678 722 692 707ZM157 68T157 57Q157 36 171 29T225 20L221 0Q175 3 94 3Q10 3 -33 0L-28 20Q7 22 24 28T52 51T73 106L205 602Q213 636 213 650Q213 672 199 679T146 688L151 708Q192 705 278 705Q358
705 406 708L401 688Q364 686 347 680T319 657T298 602L166 106Q157 68 157 57Z" />
<glyph unicode="L" glyph-name="L" horiz-adv-x="586" d="M528 191T510 128Q494 72 483 0Q415 3 254 3Q62 3 -35 0L-30 20Q6 22 23 28T52 51T73 106L206 602Q215 634 215 651Q215 672 201 679T148 688L153 708Q195 705 281 705Q362 705 408 708L403 688Q366 686
349 680T320 657T299 602L166 106Q157 75 157 57Q157 36 172 30T225 23H298Q360 23 397 40T460 97T512 210H535Q528 191 510 128Z" />
<glyph unicode="M" glyph-name="M" horiz-adv-x="868" d="M808 705Q885 705 933 708L928 688Q891 686 874 680T846 657T825 602L693 106Q685 72 685 58Q685 36 699 29T752 20L748 0Q702 3 624 3Q536 3 494 0L498 20Q535 22 552 28T580 51T601 106L746 645L331
-5H309L241 653L99 116Q91 82 91 66Q91 41 107 32T166 20L161 0Q127 3 60 3Q1 3 -34 0L-29 20Q6 22 25 30T55 58T76 116L206 602Q214 636 214 650Q214 672 200 679T147 688L152 708Q184 705 241 705Q294 705 329 708L384 115L760 705H808Z" />
<glyph unicode="N" glyph-name="N" horiz-adv-x="770" d="M844 754T858 740T872 703Q872 676 856 654T813 631Q793 631 784 642T775 670Q775 686 784 703T807 733H804Q755 732 722 682Q678 616 630 450T521 -5H499L271 639Q222 388 179 215T95 -11Q73 -40 49 -57T-12
-74Q-72 -74 -72 -22Q-72 5 -56 27T-13 49Q7 49 16 38T25 10Q25 -6 16 -23T-7 -53H-4Q47 -52 79 -1Q116 58 156 210T243 602Q249 631 249 647Q249 671 233 678T172 688L177 708Q209 705 266 705Q312 705 347 708L536 155Q579 347 620 487T704 690Q748 754 812 754Q844
754 858 740Z" />
<glyph unicode="O" glyph-name="O" horiz-adv-x="729" d="M54 339T107 455T255 646T471 722Q583 722 645 659T707 481Q707 368 654 253T504 62T289 -14Q178 -14 116 49T54 226Q54 339 107 455ZM387 704T317 632T203 446T160 213Q160 116 198 60T298 4Q373 4 443
76T557 262T600 495Q600 592 562 648T462 704Q387 704 317 632Z" />
<glyph unicode="P" glyph-name="P" horiz-adv-x="589" d="M519 707T569 667T620 556Q620 478 573 416T439 319T243 284H213L166 106Q164 99 160 83T156 56Q156 37 171 29T225 20L221 0Q175 3 97 3Q9 3 -33 0L-29 20Q7 22 25 28T53 51T74 106L206 602Q215 638 215
650Q215 670 200 678T147 688L152 708Q192 705 275 705Q323 705 347 706L421 707Q519 707 569 667ZM393 304T456 377T519 572Q519 631 489 659T392 688Q362 688 345 681T318 655T298 602L219 304H253Q393 304 456 377Z" />
<glyph unicode="Q" glyph-name="Q" horiz-adv-x="781" d="M669 50T683 35T697 -7Q697 -51 658 -93T560 -161T441 -188Q371 -188 317 -153T201 -52Q117 -82 59 -82Q10 -82 -17 -63T-45 -8Q-45 31 -11 56T77 81Q128 81 167 60T264 -8Q363 43 451 127T593 311T648
509Q648 598 604 651T477 704Q403 704 345 661T255 550T223 409Q223 337 254 302T337 266Q381 266 417 290T473 351T494 424Q494 451 487 464Q477 443 456 431T413 419Q391 419 379 432T366 466Q366 492 385 509T435 527Q471 527 492 500T514 429Q514 380 487 337T410
269T299 243Q215 243 168 291T121 418Q121 503 174 573T314 682T494 722Q614 722 683 667T752 515Q752 414 683 311T504 121T279 -20Q341 -68 395 -94T524 -120Q574 -120 609 -105T668 -52Q653 -58 637 -58Q614 -58 601 -45T588 -10Q588 14 605 32T647 50Q669 50
683 35ZM120 -65T190 -40Q141 12 111 35T47 59Q18 59 -4 41T-26 -6Q-26 -65 70 -65Q120 -65 190 -40Z" />
<glyph unicode="R" glyph-name="R" horiz-adv-x="664" d="M592 121H615L611 108Q593 45 566 16T492 -14Q445 -14 422 14T402 82L410 194Q411 206 411 226Q411 268 396 291T342 324T227 336L166 106Q157 76 157 57Q157 37 171 29T225 20L221 0Q175 3 97 3Q9 3 -33
0L-29 20Q7 22 25 28T53 51T74 106L206 602Q215 636 215 649Q215 670 200 678T147 688L152 708Q192 705 275 705Q323 705 347 706L421 707Q519 707 569 670T620 566Q620 484 549 424T359 344Q372 343 394 339Q453 328 479 304T505 227Q505 214 504 207L496 105Q495
98 495 84Q495 23 527 23Q544 23 558 43T587 107L592 121ZM233 356H263Q398 356 458 415T519 572Q519 631 489 659T392 688Q362 688 345 681T318 655T298 602L233 356Z" />
<glyph unicode="S" glyph-name="S" horiz-adv-x="554" d="M540 624T517 511H497Q503 540 503 568Q503 627 468 665T361 703Q298 703 260 671T221 576Q221 527 251 486T343 389Q386 350 412 321T456 257T474 182Q474 117 437 73T341 7T221 -14Q168 -14 137 -1T79
32Q60 47 43 47Q31 47 23 35T2 -7H-18Q-2 31 13 84T50 233H70Q61 186 61 159Q61 86 101 46T224 6Q292 6 331 37T371 131Q371 169 356 201T320 257T260 319Q220 357 197 384T157 447T140 527Q140 589 171 633T253 699T360 722Q401 722 431 712T490 680Q514 662 523
662Q531 662 538 674T556 715H576Q540 624 517 511Z" />
<glyph unicode="T" glyph-name="T" horiz-adv-x="659" d="M790 817T801 804T813 769Q813 747 800 729T766 697Q713 664 608 664Q564 664 506 671L358 116Q349 85 349 65Q349 40 367 31T433 20L429 0Q377 3 280 3Q182 3 134 0L138 20Q180 22 203 30T240 58T265
116L416 683Q335 694 287 694Q200 694 175 677Q183 666 188 650T193 619Q193 596 180 579T143 561Q122 561 111 574T99 611Q99 663 152 689Q199 712 286 712Q326 712 362 709T453 698Q505 691 540 688T615 684Q660 684 690 689T744 706Q719 731 719 762Q719 784
731 800T768 817Q790 817 801 804Z" />
<glyph unicode="U" glyph-name="U" horiz-adv-x="682" d="M638 617T638 636Q638 664 621 675T564 688L569 708Q604 705 670 705Q729 705 764 708L759 688Q724 686 705 678T674 650T653 592L575 291Q539 153 477 79Q440 36 387 11T272 -14Q165 -14 118 40Q100 61
92 85T83 142Q83 196 108 288L191 602Q199 636 199 650Q199 672 185 679T132 688L138 708Q178 705 267 705Q344 705 392 708L386 688Q349 686 332 680T304 657T283 602L195 271Q173 186 173 136Q173 81 200 51T291 21Q396 21 456 89T549 280L631 592Q638 617 638
636Z" />
<glyph unicode="V" glyph-name="V" horiz-adv-x="632" d="M710 705T742 708L737 688Q684 677 636 601L242 -5H227L148 624Q144 657 129 672T96 688L101 708Q140 705 209 705Q286 705 329 708L324 688Q292 686 276 682T251 666T242 629Q242 622 244 604L301 121L578
546Q621 613 621 645Q621 667 603 677T547 688L552 708Q607 705 666 705Q710 705 742 708Z" />
<glyph unicode="W" glyph-name="W" horiz-adv-x="902" d="M962 705T994 708L989 688Q930 675 894 601L595 -5H579L507 451L236 -5H220L141 624Q133 686 86 688L90 708Q130 705 189 705Q261 705 297 708L293 688Q262 686 249 674T235 630Q235 624 237 604L293 127L502
482L480 624Q470 686 435 688L439 708Q475 705 528 705Q614 705 656 708L652 688Q607 686 590 676T573 636Q573 622 576 604L648 149L843 546Q876 614 876 643Q876 668 858 677T799 688L804 708Q860 705 918 705Q962 705 994 708Z" />
<glyph unicode="X" glyph-name="X" horiz-adv-x="699" d="M721 722T735 708T749 671Q749 646 734 623T690 599Q671 599 662 610T652 637Q652 652 661 670T684 701H681Q646 701 617 680Q572 647 517 570T410 382L436 155Q442 102 460 72T515 41Q544 41 562 59T595
119L612 170H632L606 93Q587 38 557 12T484 -14Q419 -14 390 29T353 142L335 299Q296 216 235 138T118 21Q72 -14 26 -14Q-5 -14 -19 0T-33 37Q-33 62 -18 85T26 109Q46 109 55 98T64 71Q64 56 55 38T32 7H36Q70 8 99 28Q151 62 213 140T331 332L305 553Q299 606
281 636T226 667Q197 667 179 649T146 589L129 538H109L135 615Q154 670 184 696T257 722Q322 722 351 679T388 566L406 411Q445 496 498 572T598 687Q644 722 690 722Q721 722 735 708Z" />
<glyph unicode="Y" glyph-name="Y" horiz-adv-x="670" d="M729 722T742 707T756 669Q756 644 741 622T697 599Q677 599 668 610T659 639Q659 655 668 671T691 701H688Q661 700 633 679Q581 641 521 557T404 338L346 106Q338 72 338 58Q338 36 352 29T405 20L400
0Q355 3 276 3Q189 3 145 0L150 20Q186 22 204 28T233 51T253 106L312 339Q296 481 269 574T195 667Q178 667 167 656T147 620L119 538H97L130 635Q146 682 166 702T228 722Q281 722 313 679T364 559T395 360Q432 453 480 528T582 657Q647 722 700 722Q729 722
742 707Z" />
<glyph unicode="Z" glyph-name="Z" horiz-adv-x="652" d="M719 709T719 700Q719 686 701 670T644 638L367 366H519L511 346H347L64 68Q156 122 237 122Q265 122 288 115T343 94Q377 80 399 73T451 66Q484 66 501 83T519 132Q519 191 447 205L451 225Q496 217 526
190T557 109Q557 55 524 21T436 -14Q403 -14 378 -1T320 40Q288 66 263 79T207 93Q169 93 138 83T59 48Q41 22 21 6T-15 -10Q-24 -10 -29 -5Q-35 -1 -35 8Q-35 22 -17 38T40 70L321 346H159L166 366H341L620 640Q528 586 447 586Q419 586 396 593T341 614Q307 628
285 635T233 642Q200 642 183 625T165 576Q165 517 237 503L233 483Q188 491 158 518T127 599Q127 653 160 687T248 722Q281 722 306 709T364 668Q396 642 421 629T477 615Q515 615 546 625T625 660Q643 686 663 702T699 718Q708 718 713 713Q719 709 719 700Z"
/>
<glyph unicode="[" glyph-name="bracketleft" horiz-adv-x="300" d="M213 772H383L379 753H298L69 -162H150L146 -181H-24L213 772Z" />
<glyph unicode="\" glyph-name="backslash" horiz-adv-x="492" d="M391 -14H358L132 722H163L391 -14Z" />
<glyph unicode="]" glyph-name="bracketright" horiz-adv-x="300" d="M87 -181H-83L-79 -162H2L231 753H150L154 772H324L87 -181Z" />
<glyph unicode="^" glyph-name="asciicircum" horiz-adv-x="535" d="M251 409T197 377T89 322L85 336Q157 367 220 418T323 528H341Q349 470 385 419T477 336L465 322Q411 344 363 376T289 442Q251 409 197 377Z" />
<glyph unicode="_" glyph-name="underscore" horiz-adv-x="744" d="M561 -120L550 -160H-50L-40 -120H561Z" />
<glyph unicode="`" glyph-name="grave" horiz-adv-x="320" d="M307 650T252 717Q247 723 230 744T201 784Q191 801 191 816Q191 836 207 844Q214 847 223 847Q248 847 266 816Q276 799 299 741Q325 672 357 605L344 599Q307 650 252 717Z" />
<glyph unicode="a" glyph-name="a" horiz-adv-x="523" d="M455 163H474L449 90Q429 35 398 11T334 -14Q315 -14 301 -7T279 12Q270 27 270 47Q270 68 277 94T286 127L304 199Q256 87 207 37T103 -14Q57 -14 33 19T9 107Q9 188 52 288T164 458T304 528Q331 528
348 508T368 452L384 514Q439 516 476 528L351 86Q350 82 347 71T344 49Q344 24 366 24Q410 24 443 126L455 163ZM160 18T199 61T275 175T337 328L355 399Q356 407 356 421Q356 462 342 485T301 509Q258 509 210 443T130 279T97 95Q97 54 106 36T132 18Q160 18
199 61Z" />
<glyph unicode="b" glyph-name="b" horiz-adv-x="504" d="M411 528T438 493T466 387Q466 306 430 212T327 52T173 -14Q143 -14 121 3T89 53L4 -16L-11 -9Q1 16 8 49L183 667Q187 680 187 694Q187 714 172 723T120 733L125 754Q178 755 220 765T301 795L172 323Q219
431 264 479T362 528Q411 528 438 493ZM225 9T273 75T350 237T380 409Q380 452 368 474T333 496Q293 496 237 408T135 191L101 64Q113 34 130 22T172 9Q225 9 273 75Z" />
<glyph unicode="c" glyph-name="c" horiz-adv-x="432" d="M273 508T224 454T143 311T111 124Q111 75 129 52T181 28Q263 28 331 128L351 120Q319 65 265 26T150 -14Q89 -14 54 23T18 133Q18 214 56 307T163 464T320 528Q366 528 397 505T428 443Q428 412 408 388T357
363Q337 363 327 374T316 402Q316 430 338 450T391 477Q370 508 323 508Q273 508 224 454Z" />
<glyph unicode="d" glyph-name="d" horiz-adv-x="542" d="M472 162H491L468 89Q451 34 419 10T352 -14Q321 -14 305 2T289 48Q289 76 302 126L316 177Q269 76 220 31T116 -14Q67 -14 40 19T12 118Q12 201 55 298T173 461T335 528Q355 528 372 515T396 480L446
667Q450 680 450 694Q450 714 435 723T382 733L388 754Q441 755 483 765T565 795L369 85Q363 61 363 51Q363 23 387 23Q407 23 424 46T460 125L472 162ZM175 18T214 60T291 172T354 323L389 454Q383 480 369 492T336 505Q275 505 221 441T134 281T101 105Q101 18
145 18Q175 18 214 60Z" />
<glyph unicode="e" glyph-name="e" horiz-adv-x="429" d="M416 381T325 320T117 221Q106 171 106 124Q106 28 175 28Q261 28 329 128L345 120Q313 65 259 26T144 -14Q82 -14 47 22T12 127Q12 203 56 298T177 461T342 528Q374 528 395 511T416 462Q416 381 325
320ZM288 509T249 472T175 372T122 240Q217 273 258 304Q295 333 315 374T336 464Q336 491 332 500T320 509Q288 509 249 472Z" />
<glyph unicode="f" glyph-name="f" horiz-adv-x="321" d="M434 782T459 762T485 711Q485 685 466 664T418 642Q399 642 388 651T378 676Q378 700 393 717T435 743Q435 752 422 759T389 767Q359 767 331 741Q310 722 296 681T261 558L250 515V514H368L362 494H244L65
-174Q11 -176 -25 -188L157 494H67L73 514H163V515Q185 597 208 648T265 732Q288 755 321 768T390 782Q434 782 459 762Z" />
<glyph unicode="g" glyph-name="g" horiz-adv-x="449" d="M470 569T485 554T501 509Q501 483 488 469T457 455Q438 455 424 468T409 506Q409 524 418 548Q379 531 361 506Q403 477 403 416Q403 372 382 330T321 258T229 217L196 199Q149 174 128 159T106 130Q106
119 120 111T166 95L239 76Q296 61 324 43T352 -11Q352 -49 321 -92T224 -165T62 -195Q-15 -195 -55 -175T-96 -120Q-96 -86 -59 -52T46 3L53 -12Q-12 -46 -12 -103Q-12 -141 14 -159T85 -178Q129 -178 176 -160T253 -113T284 -51Q284 -37 276 -32T243 -21L90 18Q36
32 36 78Q36 109 68 139T191 213H184Q126 213 90 240T54 322Q54 364 76 412T147 494T271 528Q314 528 343 515Q362 539 389 554T443 569Q470 569 485 554ZM240 231T267 266T304 349T314 436Q314 473 304 491T267 510Q219 510 191 468T152 374T141 291Q141 231 194
231Q240 231 267 266Z" />
<glyph unicode="h" glyph-name="h" horiz-adv-x="536" d="M486 162L461 89Q425 -14 340 -14Q270 -14 270 48Q270 78 286 126L381 412Q391 440 391 462Q391 496 359 496Q322 496 280 450T194 319T114 124L78 0H-9L189 667Q194 684 194 694Q194 714 178 723T125
733L131 754Q235 755 311 795L166 299Q220 421 274 474T392 528Q473 528 473 452Q473 420 458 377L361 85Q353 61 353 47Q353 23 377 23Q397 23 415 45T454 125L467 162H486Z" />
<glyph unicode="i" glyph-name="i" horiz-adv-x="302" d="M188 713T210 736T262 760Q285 760 299 745T313 708Q313 678 290 655T238 632Q216 632 202 646T188 683Q188 713 210 736ZM166 453T166 466Q166 491 144 491Q121 491 103 467T65 389L51 352H32L58 425Q78
482 111 505T182 528Q248 528 248 465Q248 432 232 388L125 85Q117 61 117 48Q117 23 141 23Q162 23 180 46T219 125L233 162H252L226 89Q206 34 174 10T103 -14Q33 -14 33 47Q33 76 51 126L158 429Q166 453 166 466Z" />
<glyph unicode="j" glyph-name="j" horiz-adv-x="276" d="M-133 -173Q-71 -170 -27 -120T39 19L154 429Q161 453 161 468Q161 491 139 491Q119 491 101 468T63 389L50 352H31L55 425Q89 528 178 528Q245 528 245 467Q245 441 230 388L153 115Q112 -51 20 -127Q-14
-155 -54 -171T-137 -188L-133 -173ZM187 716T208 740T261 765Q284 765 298 751T312 714Q312 686 290 662T237 637Q215 637 201 651T187 688Q187 716 208 740Z" />
<glyph unicode="k" glyph-name="k" horiz-adv-x="515" d="M462 528T476 513T491 474Q491 452 477 429T433 405Q413 405 404 416T394 445Q394 459 403 476T426 507H424Q413 507 405 504T387 493Q373 482 363 465T339 417Q314 364 289 333T215 291Q278 288 318 265T359
191Q359 179 356 164L336 64Q334 56 334 44Q334 33 339 28T356 23Q376 23 393 46T430 125L442 162H461L437 89Q404 -14 318 -14Q289 -14 271 2T253 51Q253 66 257 81L275 167Q280 190 280 204Q280 242 253 261T162 285L78 0H-9L189 667Q194 684 194 694Q194 714
178 723T125 733L131 754Q235 755 311 795L165 297Q212 301 241 319T285 361T319 424Q332 454 343 473T372 505Q403 528 432 528Q462 528 476 513Z" />
<glyph unicode="l" glyph-name="l" horiz-adv-x="277" d="M96 64T96 50Q96 23 119 23Q139 23 156 46T194 125L207 162H226L201 89Q166 -14 81 -14Q12 -14 12 51Q12 76 26 126L189 667Q194 685 194 695Q194 715 179 724T126 733L133 754Q186 755 228 765T311 795L102
85Q96 64 96 50Z" />
<glyph unicode="m" glyph-name="m" horiz-adv-x="809" d="M759 162L734 89Q698 -14 613 -14Q568 -14 551 13Q542 28 542 48Q542 75 559 126L654 412Q664 442 664 465Q664 496 642 496Q585 496 514 366T375 20L376 26L369 0H279L404 412Q414 442 414 463Q414 496
386 496Q349 496 303 438T213 278T135 55L121 0H34L154 429Q161 457 161 466Q161 491 140 491Q118 491 100 468T62 389L49 352H30L55 425Q91 528 176 528Q234 528 234 468Q234 442 219 388L187 261Q247 407 300 467T419 528Q485 528 485 458Q485 427 471 377L435
243Q477 348 514 409T589 499T675 528Q745 528 745 453Q745 421 731 377L634 85Q626 59 626 47Q626 23 650 23Q670 23 688 45T727 125L740 162H759Z" />
<glyph unicode="n" glyph-name="n" horiz-adv-x="580" d="M530 162L505 89Q469 -14 384 -14Q339 -14 321 15Q313 27 313 48Q313 75 330 126L425 412Q435 445 435 461Q435 496 403 496Q365 496 317 441T221 288T140 73L122 0H35L155 429Q162 455 162 466Q162 491
140 491Q118 491 101 469T63 389L50 352H31L56 425Q92 528 175 528Q207 528 220 513T234 469Q234 442 220 388L185 251Q249 402 307 465T436 528Q517 528 517 453Q517 420 502 377L405 85Q397 61 397 47Q397 23 421 23Q441 23 459 45T498 125L511 162H530Z" />
<glyph unicode="o" glyph-name="o" horiz-adv-x="488" d="M21 222T56 312T157 465T310 528Q374 528 410 489T447 371Q447 292 412 202T311 49T158 -14Q94 -14 58 25T21 143Q21 222 56 312ZM253 508T208 443T135 281T107 93Q107 48 121 27T164 6Q215 6 260 71T333
233T361 421Q361 466 347 487T304 508Q253 508 208 443Z" />
<glyph unicode="p" glyph-name="p" horiz-adv-x="551" d="M458 528T485 493T513 387Q513 306 477 212T374 52T220 -14Q193 -14 171 1T139 44L101 -88Q97 -100 97 -112Q97 -138 119 -149T182 -160L176 -181L155 -180Q68 -177 42 -177Q15 -177 -69 -181L-63 -160Q-27
-160 -11 -147T15 -98L202 569Q172 502 132 451T33 344L22 357Q69 403 100 439T163 526T226 653L230 667Q284 669 321 681L217 317Q264 428 310 478T409 528Q458 528 485 493ZM272 9T320 75T397 237T427 409Q427 452 415 474T380 496Q352 496 315 451T239 328T172
160L146 69Q158 37 176 23T219 9Q272 9 320 75Z" />
<glyph unicode="q" glyph-name="q" horiz-adv-x="507" d="M326 -88Q322 -101 322 -114Q322 -160 387 -160L381 -181L360 -180Q273 -177 247 -177Q220 -177 136 -181L142 -160Q188 -160 209 -147T240 -98L309 166Q264 70 219 28T122 -14Q73 -14 46 21T18 127Q18
208 54 302T157 462T311 528Q341 528 363 511T395 461L480 530L496 523Q483 497 475 465L326 -88ZM179 18T215 55T285 156T342 291L383 450Q371 480 354 492T312 505Q259 505 211 439T134 277T104 105Q104 62 116 40T151 18Q179 18 215 55Z" />
<glyph unicode="r" glyph-name="r" horiz-adv-x="426" d="M422 528T438 512T454 471Q454 441 433 420T384 399Q366 399 355 408T344 435Q344 458 356 474T389 499Q385 503 378 503Q324 503 261 387T141 79L121 0H34L154 429Q161 451 161 468Q161 491 140 491Q118
491 100 468T62 389L49 352H30L55 425Q91 528 176 528Q233 528 233 470Q233 442 219 388L187 262Q241 407 288 467T395 528Q422 528 438 512Z" />
<glyph unicode="s" glyph-name="s" horiz-adv-x="381" d="M69 10T78 8T105 6Q150 6 178 33T206 109Q206 141 194 171T154 241Q120 287 105 316T89 386Q89 427 110 459T166 510T244 528Q296 528 331 509T366 441Q366 423 355 406T320 389Q303 389 292 401T280 431Q280
463 308 498Q289 510 258 510Q220 510 196 485T171 415Q171 389 180 371T213 316L231 290Q261 244 275 211T290 143Q290 98 267 62T204 6T118 -14Q61 -14 22 10T-17 85Q-17 102 -8 116T22 130Q44 130 55 112T66 67Q66 50 59 15Q69 10 78 8Z" />
<glyph unicode="t" glyph-name="t" horiz-adv-x="336" d="M121 85Q118 73 118 63Q118 43 130 33T161 23Q186 23 207 44T250 123L264 162H283L262 99Q241 37 208 12T125 -14Q80 -14 58 8T36 69Q36 95 45 126L151 494H61L66 514H156L200 666Q254 668 290 680L243
514H375L372 494H237L121 85Z" />
<glyph unicode="u" glyph-name="u" horiz-adv-x="567" d="M499 162H518L493 89Q457 -14 372 -14Q356 -14 342 -7T321 13Q315 27 315 44Q315 70 329 126L360 251Q302 108 247 47T127 -14Q43 -14 43 63Q43 95 57 137L154 429Q162 453 162 466Q162 491 138 491Q118
491 100 469T61 389L48 352H29L54 425Q90 528 175 528Q245 528 245 466Q245 436 229 388L134 102Q124 72 124 52Q124 18 156 18Q195 18 242 75T335 235T415 465L427 514Q484 516 518 528L394 85Q387 59 387 46Q387 23 408 23Q430 23 448 46T486 125L499 162Z" />
<glyph unicode="v" glyph-name="v" horiz-adv-x="533" d="M443 394T422 420T401 480Q401 505 414 517T445 529Q473 529 487 502T501 428Q501 402 499 388Q487 285 447 193T339 44T183 -14Q120 -14 93 22T69 110Q75 192 137 293T301 490Q276 480 244 460Q219 444
201 436T169 427Q158 427 148 433T135 440Q117 452 106 452Q90 452 80 439T57 390L46 353H27L49 426Q77 528 143 528Q156 528 165 524T188 509Q201 499 211 494T234 489Q284 489 318 520L328 539L349 529Q268 429 223 330T169 127Q168 118 168 103Q168 19 212 19Q285
19 344 80T437 226T474 379Q443 394 422 420Z" />
<glyph unicode="w" glyph-name="w" horiz-adv-x="685" d="M627 377T627 326Q627 245 601 167T519 38T381 -14Q302 -14 275 47Q207 -14 137 -14Q73 -14 43 18T13 100Q13 185 97 284T300 473Q297 472 277 459Q249 442 233 435T203 427Q191 427 182 433T170 440Q152
452 140 452Q124 452 113 439T91 390L79 353H60L83 426Q101 482 124 505T176 528Q189 528 198 524T221 509Q236 499 245 494T268 489Q292 489 311 496T348 520L362 539L383 529Q261 426 186 321T111 106Q111 58 125 37T166 16Q191 16 217 28T269 64Q262 92 262
123Q262 179 286 234T345 324T408 359Q428 359 435 338T443 289Q443 235 414 180T328 81Q351 15 408 15Q472 15 516 64T583 185T605 325Q605 366 598 391Q562 398 533 420T503 480Q503 504 515 516T545 528Q573 528 591 496T619 410Q627 377 627 326ZM384 337T364
311T330 245T316 163Q316 127 323 99Q368 136 394 187T420 290Q420 337 401 337Q384 337 364 311Z" />
<glyph unicode="x" glyph-name="x" horiz-adv-x="526" d="M497 528T509 518T522 491Q522 472 507 458T469 443Q435 443 406 467Q343 410 298 292L322 78Q326 53 334 43T356 32Q373 32 388 51T423 124L436 161H455L430 88Q393 -14 316 -14Q244 -14 233 78L218 208Q178
119 112 48Q81 16 58 1T11 -14Q-11 -14 -22 -5T-34 23Q-34 42 -19 56T18 71Q50 71 81 47Q122 85 157 138T214 244L193 436Q189 461 181 471T159 482Q142 482 127 463T92 390L79 353H60L85 426Q122 528 199 528Q236 528 256 508T282 436L294 333Q327 409 378 467Q406
500 429 514T478 528Q497 528 509 518Z" />
<glyph unicode="y" glyph-name="y" horiz-adv-x="481" d="M458 528T458 447Q458 352 399 227T261 3Q168 -113 64 -163Q11 -188 -23 -188Q-44 -188 -58 -177T-73 -147Q-73 -126 -57 -114T-19 -102Q2 -102 21 -112T64 -141Q142 -99 214 -21L140 427Q135 458 128
470T108 482Q95 482 82 463T49 390L36 353H17L42 426Q77 528 157 528Q189 528 205 508T229 436L280 60Q335 136 375 219T431 385Q401 401 378 424T355 477Q355 500 369 514T406 528Q458 528 458 447Z" />
<glyph unicode="z" glyph-name="z" horiz-adv-x="445" d="M70 68T97 79T152 91Q168 91 181 87T217 75Q239 67 254 63T287 59Q313 59 327 71T342 109Q342 135 320 154T263 181L269 196Q316 185 341 161T366 99Q366 55 338 25T250 -6Q227 -6 209 -1T168 15Q143 26
124 31T78 37Q50 37 29 29T-12 0H-39L412 475Q367 446 340 435T285 423Q269 423 256 427T220 439Q198 447 183 451T150 455Q124 455 110 443T95 405Q95 379 117 360T174 333L168 318Q121 329 96 353T71 415Q71 459 99 489T187 520Q210 520 228 515T269 499Q294
488 313 483T359 477Q387 477 408 485T449 514H476L25 39Q70 68 97 79Z" />
<glyph unicode="{" glyph-name="braceleft" horiz-adv-x="306" d="M86 -188T56 -160T25 -80Q25 -56 30 -28T46 43Q79 176 79 227Q78 257 67 270T32 286H27L30 304H35Q67 307 88 328T129 400T172 547Q196 640 224 690T294 761T399 782L394 763Q359 762 340 749T304
691T262 547Q232 425 180 370T57 295Q153 267 153 158Q153 113 136 43Q107 -75 107 -115Q107 -146 120 -157T164 -169L159 -188Q86 -188 56 -160Z" />
<glyph unicode="|" glyph-name="bar" horiz-adv-x="318" d="M189 -195H149V858H189V-195Z" />
<glyph unicode="}" glyph-name="braceright" horiz-adv-x="306" d="M221 782T251 754T282 674Q282 650 277 622T261 551Q228 418 228 367Q229 337 240 324T275 308H280L277 290H272Q240 287 219 266T178 194T135 47Q111 -46 83 -96T13 -167T-92 -188L-87 -169Q-52
-168 -33 -155T3 -97T45 47Q75 169 127 224T250 299Q154 327 154 436Q154 481 171 551Q200 669 200 709Q200 740 187 751T143 763L148 782Q221 782 251 754Z" />
<glyph unicode="~" glyph-name="asciitilde" horiz-adv-x="649" d="M385 237T359 247T296 277Q261 296 238 305T183 315Q118 315 82 257L68 262Q91 312 134 340T233 369Q268 369 294 359T357 329Q392 310 415 301T470 291Q535 291 571 349L585 344Q562 294 519
266T420 237Q385 237 359 247Z" />
<glyph unicode="&#xa0;" glyph-name="uni00A0" horiz-adv-x="253" />
<glyph unicode="&#xa1;" glyph-name="exclamdown" horiz-adv-x="249" d="M106 481T128 504T180 528Q203 528 217 513T231 476Q231 446 208 423T156 400Q134 400 120 414T106 451Q106 481 128 504ZM125 248T113 181T86 19Q84 6 75 -53T55 -149Q51 -168 39 -178T10
-188Q-13 -188 -24 -177T-36 -147Q-36 -140 -32 -126Q-21 -89 19 14Q54 104 79 175T124 319L142 316Q125 248 113 181Z" />
<glyph unicode="&#xa2;" glyph-name="cent" horiz-adv-x="433" d="M363 528T394 505T425 443Q425 412 405 388T354 363Q334 363 324 374T313 402Q313 430 335 450T388 477Q367 508 320 508Q313 508 301 506L172 28H178Q260 28 328 128L348 120Q318 68 268 30T161
-13L116 -181H94L139 -14Q81 -12 48 25T15 133Q15 209 48 296T143 448T284 525L333 708H355L307 528H317Q363 528 394 505ZM276 498Q232 477 194 421T132 287T108 124Q108 50 151 33L276 498Z" />
<glyph unicode="&#xa3;" glyph-name="sterling" horiz-adv-x="624" d="M502 659T515 675T550 697Q550 707 533 714T494 721Q434 721 397 687T338 601T294 465L281 417H417L411 397H276L255 317H390L384 297H249Q229 235 194 188T94 76Q163 108 220 108Q242 108
261 103T312 86Q346 74 366 69T413 63Q447 63 473 83T499 137Q499 193 434 206L440 223Q483 216 512 190T541 121Q541 88 521 57T468 6T398 -14Q367 -14 343 -2T286 33Q252 57 228 68T172 80Q131 80 85 60Q60 25 35 6T-11 -14Q-18 -14 -21 -12T-24 -4Q-24 12 3
34T75 69Q96 109 112 151T146 258L156 297H59L65 317H162L183 397H86L92 417H188L194 439Q230 575 303 655T496 736Q547 736 573 717T600 668Q600 643 582 624T538 605Q523 605 513 614T502 639Q502 659 515 675Z" />
<glyph unicode="&#xa4;" glyph-name="currency" horiz-adv-x="569" d="M139 181Q97 233 97 300Q97 367 140 420L96 464L124 492L168 448Q192 468 223 479T287 490Q353 490 406 447L451 492L479 464L434 419Q476 366 476 300Q476 233 434 181L478 138L450 109L406
153Q353 111 287 111Q218 111 168 152L125 109L96 138L139 181ZM138 259T158 224T213 169T287 148Q327 148 361 168T415 224T435 300Q435 340 415 375T361 432T287 453Q247 453 213 432T158 376T138 300Q138 259 158 224Z" />
<glyph unicode="&#xa5;" glyph-name="yen" horiz-adv-x="703" d="M737 722T750 707T764 669Q764 644 749 622T705 599Q685 599 676 610T667 639Q667 655 676 671T699 701H696Q669 700 641 679Q589 641 529 557T412 338L402 297H543L538 277H397L382 217H521L516
197H377L354 106Q346 72 346 58Q346 36 360 29T413 20L408 0Q363 3 284 3Q197 3 153 0L158 20Q194 22 212 28T241 51T261 106L284 197H143L148 217H289L304 277H165L170 297H309L320 339Q304 481 277 574T203 667Q186 667 175 656T155 620L127 538H105L138 635Q154
682 174 702T236 722Q289 722 321 679T372 559T403 360Q440 453 488 528T590 657Q655 722 708 722Q737 722 750 707Z" />
<glyph unicode="&#xa6;" glyph-name="brokenbar" horiz-adv-x="322" d="M191 384H151V858H191V384ZM151 326H191V-195H151V326Z" />
<glyph unicode="&#xa7;" glyph-name="section" horiz-adv-x="508" d="M411 686T427 703T469 727Q463 747 437 755T381 763Q323 763 281 731T239 630Q239 599 256 572T294 526T361 467Q415 421 440 388T465 312Q465 248 421 198T304 111Q347 63 347 9Q347 -45 317
-90T235 -162T127 -188Q74 -188 31 -165T-13 -95Q-13 -69 6 -48T54 -27Q74 -27 85 -37T97 -67Q97 -91 81 -108T39 -133Q45 -152 72 -160T127 -169Q186 -169 227 -137T269 -34Q269 -4 252 23T215 68T147 127Q93 173 68 206T43 282Q43 346 87 396T204 483Q161 531
161 585Q161 639 191 684T273 756T381 782Q433 782 477 759T522 692Q522 664 503 643T454 621Q434 621 423 632T411 663Q411 686 427 703ZM279 414Q235 449 215 470Q108 413 108 338Q108 302 134 270T213 194L229 180Q273 145 293 124Q400 181 400 256Q400 293
374 324T295 400L279 414Z" />
<glyph unicode="&#xa8;" glyph-name="dieresis" horiz-adv-x="428" d="M156 702T176 722T223 743Q244 743 258 729T273 693Q273 668 253 648T206 627Q184 627 170 641T156 678Q156 702 176 722ZM368 702T388 722T435 743Q456 743 470 729T485 693Q485 668 465
648T418 627Q396 627 382 641T368 678Q368 702 388 722Z" />
<glyph unicode="&#xa9;" glyph-name="copyright" horiz-adv-x="924" d="M88 492T141 583T286 728T486 782Q594 782 685 729T830 584T884 384Q884 276 831 185T686 40T486 -14Q378 -14 287 39T142 184T88 384Q88 492 141 583ZM128 285T176 201T306 68T486 18Q583
18 665 67T796 201T844 384Q844 483 796 567T666 700T486 750Q389 750 307 701T176 567T128 384Q128 285 176 201ZM553 156T591 181T655 259L674 252Q657 195 611 154T491 113Q428 113 378 145T298 237T269 378Q269 459 298 522T381 621T503 656Q568 656 616 626T665
547Q665 521 650 506T612 491Q589 491 573 505T557 545Q557 566 568 579T599 596Q589 614 564 626T509 638Q450 638 408 580T366 390Q366 269 406 213T509 156Q553 156 591 181Z" />
<glyph unicode="&#xaa;" glyph-name="ordfeminine" horiz-adv-x="454" d="M436 478H455L437 429Q423 390 402 375T347 360Q325 360 315 369T304 401Q304 421 313 454L325 497Q259 360 175 360Q139 360 118 382T97 440Q97 498 135 564T231 676T342 722Q356 722
367 714T380 687L387 713Q427 713 457 722L363 430Q358 413 358 405Q358 389 374 389Q390 389 402 403T427 453L436 478ZM216 385T246 414T304 490T352 590L372 660Q371 698 347 698Q313 698 271 659T200 558T170 432Q170 385 195 385Q216 385 246 414Z" />
<glyph unicode="&#xab;" glyph-name="guillemotleft" horiz-adv-x="517" d="M285 459T219 371T99 244Q140 210 182 130T240 -14H222Q135 157 24 243V245Q101 299 168 369T300 528H318Q285 459 219 371ZM453 461T386 373T264 244Q305 210 347 130T405 -14H387Q300
157 189 243V245Q266 299 333 369T465 528H483Q453 461 386 373Z" />
<glyph unicode="&#xac;" glyph-name="logicalnot" horiz-adv-x="661" d="M103 370H604L545 165H509L559 340H94L103 370Z" />
<glyph unicode="&#xad;" glyph-name="uni00AD" horiz-adv-x="504" />
<glyph unicode="&#xae;" glyph-name="registered" horiz-adv-x="699" d="M481 782T545 745T646 643T684 503Q684 427 647 363T545 262T405 224Q329 224 265 261T164 363T126 503Q126 579 163 643T265 744T405 782Q481 782 545 745ZM470 256T524 289T610 379T642
503Q642 570 611 626T525 716T405 750Q340 750 286 717T200 627T168 503Q168 436 199 380T285 290T405 256Q470 256 524 289ZM550 364T554 372L564 365Q558 353 548 349T520 344Q495 344 483 353T465 385L448 459Q444 479 437 488T413 500T360 505V404Q360 381
364 375T383 367V352L332 353L280 352V367Q295 369 299 375T303 404V623Q303 646 299 652T280 661V676Q292 675 328 675L414 676Q471 676 500 656T530 597Q530 529 432 512Q472 508 489 495T512 454L524 397Q525 393 527 383T532 369T542 364Q550 364 554 372ZM374
661T367 655T360 628V521H384Q433 521 450 538T468 587Q468 625 452 643T398 661Q374 661 367 655Z" />
<glyph unicode="&#xaf;" glyph-name="overscore" horiz-adv-x="412" d="M469 687H157L163 712H475L469 687Z" />
<glyph unicode="&#xb0;" glyph-name="degree" horiz-adv-x="335" d="M312 820T347 787T383 700Q383 646 348 613T261 579Q211 579 176 612T140 700Q140 754 175 787T261 820Q312 820 347 787ZM299 596T328 623T358 699Q358 747 328 775T261 803Q224 803 195 775T165
699Q165 650 194 623T261 596Q299 596 328 623Z" />
<glyph unicode="&#xb1;" glyph-name="plusminus" horiz-adv-x="635" d="M0 30H501L492 0H-9L0 30ZM317 370L384 606H420L353 370H585L576 340H344L277 105H241L308 340H75L84 370H317Z" />
<glyph unicode="&#xb2;" glyph-name="uni00B2" horiz-adv-x="341" d="M331 754T352 740T373 697Q373 653 334 615T223 527Q187 502 172 490Q194 490 235 481Q241 480 263 476T298 472Q319 472 332 481T345 507Q345 518 341 526L358 533Q368 518 368 501Q368 472
344 453T278 433Q259 433 221 441Q179 451 146 451Q127 451 114 448T81 437L85 455L121 478Q205 531 259 579T314 677Q314 720 260 720Q198 720 153 668L139 679Q165 711 205 732T294 754Q331 754 352 740Z" />
<glyph unicode="&#xb3;" glyph-name="uni00B3" horiz-adv-x="326" d="M335 754T357 741T379 700Q379 661 335 630T240 586Q287 584 318 567T349 512Q349 465 301 429T182 372T43 346V364Q103 369 160 389T253 442T289 520Q289 570 234 572Q215 562 202 562Q195
562 190 565T184 575Q184 594 228 592Q271 608 296 632T321 686Q321 704 309 713T274 723Q214 723 158 667L144 679Q169 708 210 731T299 754Q335 754 357 741Z" />
<glyph unicode="&#xb4;" glyph-name="acute" horiz-adv-x="276" d="M177 655T230 726Q268 778 288 798Q307 820 329 820Q343 820 351 813Q359 805 359 794Q359 774 336 751Q314 728 268 696Q261 691 226 664T148 599L138 608Q177 655 230 726Z" />
<glyph unicode="&#xb6;" glyph-name="paragraph" horiz-adv-x="640" d="M188 -13T112 51T36 229Q36 360 98 470T269 644T507 709Q536 709 588 707L657 706Q697 706 717 708L712 689Q666 687 647 672T617 621L478 93Q443 -38 383 -113T233 -188Q187 -188 160 -174T131
-133Q131 -111 149 -92T190 -72Q205 -72 214 -80T223 -103Q223 -136 188 -167Q203 -172 223 -172Q273 -172 302 -132T354 -13Q188 -13 112 51ZM394 246T382 169T370 59Q370 48 372 48Q397 142 452 350T535 656Q532 656 513 614T470 505T426 366Q324 366 234 360T142
351Q141 347 227 342T418 337Q394 246 382 169Z" />
<glyph unicode="&#xb7;" glyph-name="middot" horiz-adv-x="258" d="M55 268T77 291T129 315Q152 315 166 300T180 263Q180 233 157 210T105 187Q83 187 69 201T55 238Q55 268 77 291Z" />
<glyph unicode="&#xb8;" glyph-name="cedilla" horiz-adv-x="290" d="M64 -72Q83 -65 105 -65Q125 -65 136 -75T148 -105Q148 -145 110 -166T25 -188Q-1 -188 -22 -182T-55 -166L-48 -151Q-19 -164 12 -164Q35 -164 59 -152T84 -113Q84 -89 56 -89Q40 -89 25 -96L71
0H98L64 -72Z" />
<glyph unicode="&#xb9;" glyph-name="uni00B9" horiz-adv-x="253" d="M215 437H156L237 688Q206 670 179 658T111 634L116 653Q179 672 215 694T297 753H316L215 437Z" />
<glyph unicode="&#xba;" glyph-name="ordmasculine" horiz-adv-x="411" d="M107 518T132 578T206 680T319 722Q373 722 403 696T434 617Q434 564 409 504T335 403T222 361Q168 361 138 387T107 465Q107 518 132 578ZM279 704T248 663T198 560T179 437Q179 379
227 379Q262 379 293 420T343 523T362 646Q362 704 314 704Q279 704 248 663Z" />
<glyph unicode="&#xbb;" glyph-name="guillemotright" horiz-adv-x="516" d="M199 355T309 270V269Q232 215 165 145T33 -14H15Q48 55 114 143T234 270Q193 304 151 384T93 528H111Q199 355 309 270ZM364 355T474 270V269Q397 215 330 145T198 -14H180Q213 55
279 143T399 270Q358 304 316 384T258 528H276Q364 355 474 270Z" />
<glyph unicode="&#xbc;" glyph-name="onequarter" horiz-adv-x="606" d="M734 811L-99 -55L-114 -42L719 824L734 811ZM215 437H156L237 688Q206 670 179 658T111 634L116 653Q179 672 215 694T297 753H316L215 437ZM402 73H458L447 32H390L356 -85H304L338 32H149L154
50L454 317H473L402 73ZM350 73L399 243L207 73H350Z" />
<glyph unicode="&#xbd;" glyph-name="onehalf" horiz-adv-x="606" d="M734 811L-99 -55L-114 -42L719 824L734 811ZM215 437H156L237 688Q206 670 179 658T111 634L116 653Q179 672 215 694T297 753H316L215 437ZM498 317T519 303T540 260Q540 216 501 178T390
90Q354 65 339 53Q361 53 402 44Q408 43 430 39T465 35Q486 35 499 44T512 70Q512 81 508 89L525 96Q535 81 535 64Q535 35 511 16T445 -4Q426 -4 388 4Q346 14 313 14Q294 14 281 11T248 0L252 18L288 41Q372 94 426 142T481 240Q481 283 427 283Q365 283 320
231L306 242Q332 274 372 295T461 317Q498 317 519 303Z" />
<glyph unicode="&#xbe;" glyph-name="threequarters" horiz-adv-x="706" d="M834 811L1 -55L-14 -42L819 824L834 811ZM335 754T357 741T379 700Q379 661 335 630T240 586Q287 584 318 567T349 512Q349 465 301 429T182 372T43 346V364Q103 369 160 389T253 442T289
520Q289 570 234 572Q215 562 202 562Q195 562 190 565T184 575Q184 594 228 592Q271 608 296 632T321 686Q321 704 309 713T274 723Q214 723 158 667L144 679Q169 708 210 731T299 754Q335 754 357 741ZM502 73H558L547 32H490L456 -85H404L438 32H249L254 50L554
317H573L502 73ZM450 73L499 243L307 73H450Z" />
<glyph unicode="&#xbf;" glyph-name="questiondown" horiz-adv-x="446" d="M200 481T222 504T274 528Q297 528 311 513T325 476Q325 446 302 423T250 400Q228 400 214 414T200 451Q200 481 222 504ZM162 -171T199 -158T246 -122Q237 -120 229 -109T221 -82Q221
-61 236 -47T274 -33Q294 -33 304 -44T314 -75Q314 -107 284 -133T206 -173T104 -188Q38 -188 -2 -163T-42 -90Q-42 -60 -27 -35T22 17T123 88L157 112Q216 153 238 176T260 231Q260 259 241 279T192 299Q160 299 130 287T87 255Q97 254 105 244T113 220Q113 204
100 192T68 179Q34 179 34 214Q34 244 61 267T130 303T212 316Q264 316 295 291T327 220Q327 187 310 160T264 109T184 49L161 33Q90 -14 63 -41T36 -103Q36 -132 59 -151T123 -171Q162 -171 199 -158Z" />
<glyph unicode="&#xc0;" glyph-name="Agrave" horiz-adv-x="629" d="M507 51T521 36T553 20L549 0Q509 3 440 3Q359 3 320 0L324 20Q358 22 376 28T403 52T410 104L401 268H155L80 162Q33 96 33 63Q33 22 107 20L102 0Q47 3 -12 3Q-55 3 -87 0L-82 20Q-36 30 18
107L449 713H464L504 84Q507 51 521 36ZM400 288L383 591L169 288H400ZM446 802T389 843Q349 870 329 889Q310 908 310 928Q310 940 317 948Q326 958 340 958Q351 958 363 952T383 937Q399 920 425 879Q474 809 497 779L487 769Q446 802 389 843Z" />
<glyph unicode="&#xc1;" glyph-name="Aacute" horiz-adv-x="629" d="M507 51T521 36T553 20L549 0Q509 3 440 3Q359 3 320 0L324 20Q358 22 376 28T403 52T410 104L401 268H155L80 162Q33 96 33 63Q33 22 107 20L102 0Q47 3 -12 3Q-55 3 -87 0L-82 20Q-36 30 18
107L449 713H464L504 84Q507 51 521 36ZM400 288L383 591L169 288H400ZM485 812T520 838T567 873Q616 911 639 925Q657 936 677 936Q698 936 705 920Q707 914 707 910Q707 897 697 886T672 866Q653 855 626 845T593 832Q506 799 450 772L443 783Q485 812 520 838Z"
/>
<glyph unicode="&#xc2;" glyph-name="Acircumflex" horiz-adv-x="629" d="M507 51T521 36T553 20L549 0Q509 3 440 3Q359 3 320 0L324 20Q358 22 376 28T403 52T410 104L401 268H155L80 162Q33 96 33 63Q33 22 107 20L102 0Q47 3 -12 3Q-55 3 -87 0L-82 20Q-36
30 18 107L449 713H464L504 84Q507 51 521 36ZM400 288L383 591L169 288H400ZM358 793T263 772L258 786Q330 808 392 842T493 916H511Q539 868 570 837T650 786L646 772Q592 782 559 795T501 822T469 840Q358 793 263 772Z" />
<glyph unicode="&#xc3;" glyph-name="Atilde" horiz-adv-x="629" d="M507 51T521 36T553 20L549 0Q509 3 440 3Q359 3 320 0L324 20Q358 22 376 28T403 52T410 104L401 268H155L80 162Q33 96 33 63Q33 22 107 20L102 0Q47 3 -12 3Q-55 3 -87 0L-82 20Q-36 30 18
107L449 713H464L504 84Q507 51 521 36ZM400 288L383 591L169 288H400ZM452 895T473 885T520 855Q541 838 556 830T593 822Q631 822 663 880L681 875Q659 823 624 798T551 772Q519 772 498 782T451 812Q430 829 415 837T378 845Q340 845 308 787L290 792Q312 844
347 869T420 895Q452 895 473 885Z" />
<glyph unicode="&#xc4;" glyph-name="Adieresis" horiz-adv-x="629" d="M507 51T521 36T553 20L549 0Q509 3 440 3Q359 3 320 0L324 20Q358 22 376 28T403 52T410 104L401 268H155L80 162Q33 96 33 63Q33 22 107 20L102 0Q47 3 -12 3Q-55 3 -87 0L-82 20Q-36 30
18 107L449 713H464L504 84Q507 51 521 36ZM400 288L383 591L169 288H400ZM318 847T338 867T385 888Q406 888 420 874T435 838Q435 813 415 793T368 772Q346 772 332 786T318 823Q318 847 338 867ZM530 847T550 867T597 888Q618 888 632 874T647 838Q647 813 627
793T580 772Q558 772 544 786T530 823Q530 847 550 867Z" />
<glyph unicode="&#xc5;" glyph-name="Aring" horiz-adv-x="629" d="M507 51T521 36T553 20L549 0Q509 3 440 3Q359 3 320 0L324 20Q358 22 376 28T403 52T410 104L401 268H155L80 162Q33 96 33 63Q33 22 107 20L102 0Q47 3 -12 3Q-55 3 -87 0L-82 20Q-36 30 18
107L449 713H464L504 84Q507 51 521 36ZM400 288L383 591L169 288H400ZM524 925T548 903T573 845Q573 803 540 773T461 742Q425 742 402 763T378 822Q378 865 410 895T487 925Q524 925 548 903ZM497 763T522 787T547 846Q547 873 528 888T483 904Q452 904 428 880T404
823Q404 795 422 779T465 763Q497 763 522 787Z" />
<glyph unicode="&#xc6;" glyph-name="AE" horiz-adv-x="897" d="M871 705T934 708Q921 672 896 590Q887 560 883 528H861Q868 567 868 599Q868 646 847 665T780 685H687Q652 685 635 680T607 657T587 602L524 366H632Q660 366 679 381T709 418T735 478H757Q741
429 730 383L723 356Q712 315 697 234H675Q675 250 678 265Q680 287 680 296Q680 318 669 331T628 346H519L455 106Q446 68 446 57Q446 36 460 30T512 23H615Q663 23 694 39T748 93T794 200H816Q808 178 795 128Q778 69 769 0Q701 3 543 3Q353 3 255 0L259 20Q295
22 313 28T341 51T362 106L426 346H263L40 94Q25 76 18 66T11 47Q11 24 73 20V0Q46 3 -13 3Q-56 3 -80 0V20Q-49 22 6 84L502 645Q503 670 489 678T435 688L440 708Q512 706 556 706L615 773H641L581 706Q640 705 727 705Q871 705 934 708ZM431 366L494 602L496
609L281 366H431Z" />
<glyph unicode="&#xc7;" glyph-name="Ccedilla" horiz-adv-x="670" d="M679 622T648 478H626Q632 517 632 547Q632 595 616 626Q598 663 563 683T485 704Q402 704 325 626T199 430T151 200Q151 104 189 54T294 4Q338 4 387 24T472 82Q498 108 517 142T562 240H584Q537
67 525 0H503Q506 21 506 34Q506 60 494 60Q487 60 473 51Q421 17 382 2T284 -14Q173 -14 112 46T51 221Q51 336 108 453T266 646T487 722Q545 722 575 706T636 657Q643 648 651 648Q660 648 669 662T691 708H712Q679 622 648 478ZM266 -72Q290 -65 317 -65Q342
-65 356 -75T370 -105Q370 -145 322 -166T217 -188Q184 -188 158 -182T117 -166L124 -151Q156 -164 204 -164Q237 -164 271 -152T306 -113Q306 -89 268 -89Q248 -89 227 -96L275 4H302L266 -72Z" />
<glyph unicode="&#xc8;" glyph-name="Egrave" horiz-adv-x="610" d="M583 705T642 708Q616 636 604 590Q593 554 590 528H567Q576 586 576 608Q576 651 554 668T475 685H402Q366 685 349 680T320 657T299 602L236 366H302Q337 366 360 382T396 421T422 477Q425
487 430 498H453Q432 432 418 379L412 356Q398 303 380 214H357L360 234Q361 241 363 256T365 282Q365 312 350 329T296 346H230L166 106Q157 75 157 57Q157 36 172 30T225 23H298Q360 23 397 39T458 92T509 200H532Q521 171 510 128Q494 72 483 0Q415 3 254 3Q62
3 -35 0L-30 20Q6 22 23 28T52 51T73 106L206 602Q215 634 215 651Q215 672 201 679T148 688L153 708Q251 705 443 705Q583 705 642 708ZM411 802T354 843Q314 870 294 889Q275 908 275 928Q275 940 282 948Q291 958 305 958Q316 958 328 952T348 937Q364 920 390
879Q439 809 462 779L452 769Q411 802 354 843Z" />
<glyph unicode="&#xc9;" glyph-name="Eacute" horiz-adv-x="610" d="M583 705T642 708Q616 636 604 590Q593 554 590 528H567Q576 586 576 608Q576 651 554 668T475 685H402Q366 685 349 680T320 657T299 602L236 366H302Q337 366 360 382T396 421T422 477Q425
487 430 498H453Q432 432 418 379L412 356Q398 303 380 214H357L360 234Q361 241 363 256T365 282Q365 312 350 329T296 346H230L166 106Q157 75 157 57Q157 36 172 30T225 23H298Q360 23 397 39T458 92T509 200H532Q521 171 510 128Q494 72 483 0Q415 3 254 3Q62
3 -35 0L-30 20Q6 22 23 28T52 51T73 106L206 602Q215 634 215 651Q215 672 201 679T148 688L153 708Q251 705 443 705Q583 705 642 708ZM450 812T485 838T532 873Q581 911 604 925Q622 936 642 936Q663 936 670 920Q672 914 672 910Q672 897 662 886T637 866Q618
855 591 845T558 832Q471 799 415 772L408 783Q450 812 485 838Z" />
<glyph unicode="&#xca;" glyph-name="Ecircumflex" horiz-adv-x="610" d="M583 705T642 708Q616 636 604 590Q593 554 590 528H567Q576 586 576 608Q576 651 554 668T475 685H402Q366 685 349 680T320 657T299 602L236 366H302Q337 366 360 382T396 421T422 477Q425
487 430 498H453Q432 432 418 379L412 356Q398 303 380 214H357L360 234Q361 241 363 256T365 282Q365 312 350 329T296 346H230L166 106Q157 75 157 57Q157 36 172 30T225 23H298Q360 23 397 39T458 92T509 200H532Q521 171 510 128Q494 72 483 0Q415 3 254 3Q62
3 -35 0L-30 20Q6 22 23 28T52 51T73 106L206 602Q215 634 215 651Q215 672 201 679T148 688L153 708Q251 705 443 705Q583 705 642 708ZM323 793T228 772L223 786Q295 808 357 842T458 916H476Q504 868 535 837T615 786L611 772Q557 782 524 795T466 822T434 840Q323
793 228 772Z" />
<glyph unicode="&#xcb;" glyph-name="Edieresis" horiz-adv-x="610" d="M583 705T642 708Q616 636 604 590Q593 554 590 528H567Q576 586 576 608Q576 651 554 668T475 685H402Q366 685 349 680T320 657T299 602L236 366H302Q337 366 360 382T396 421T422 477Q425
487 430 498H453Q432 432 418 379L412 356Q398 303 380 214H357L360 234Q361 241 363 256T365 282Q365 312 350 329T296 346H230L166 106Q157 75 157 57Q157 36 172 30T225 23H298Q360 23 397 39T458 92T509 200H532Q521 171 510 128Q494 72 483 0Q415 3 254 3Q62
3 -35 0L-30 20Q6 22 23 28T52 51T73 106L206 602Q215 634 215 651Q215 672 201 679T148 688L153 708Q251 705 443 705Q583 705 642 708ZM283 847T303 867T350 888Q371 888 385 874T400 838Q400 813 380 793T333 772Q311 772 297 786T283 823Q283 847 303 867ZM495
847T515 867T562 888Q583 888 597 874T612 838Q612 813 592 793T545 772Q523 772 509 786T495 823Q495 847 515 867Z" />
<glyph unicode="&#xcc;" glyph-name="Igrave" horiz-adv-x="341" d="M157 68T157 57Q157 36 171 29T225 20L221 0Q175 3 94 3Q10 3 -33 0L-28 20Q7 22 24 28T52 51T73 106L205 602Q213 636 213 650Q213 672 199 679T146 688L151 708Q192 705 278 705Q358 705 406
708L401 688Q364 686 347 680T319 657T298 602L166 106Q157 68 157 57ZM273 802T216 843Q176 870 156 889Q137 908 137 928Q137 940 144 948Q153 958 167 958Q178 958 190 952T210 937Q226 920 252 879Q301 809 324 779L314 769Q273 802 216 843Z" />
<glyph unicode="&#xcd;" glyph-name="Iacute" horiz-adv-x="341" d="M157 68T157 57Q157 36 171 29T225 20L221 0Q175 3 94 3Q10 3 -33 0L-28 20Q7 22 24 28T52 51T73 106L205 602Q213 636 213 650Q213 672 199 679T146 688L151 708Q192 705 278 705Q358 705 406
708L401 688Q364 686 347 680T319 657T298 602L166 106Q157 68 157 57ZM312 812T347 838T394 873Q443 911 466 925Q484 936 504 936Q525 936 532 920Q534 914 534 910Q534 897 524 886T499 866Q480 855 453 845T420 832Q333 799 277 772L270 783Q312 812 347 838Z"
/>
<glyph unicode="&#xce;" glyph-name="Icircumflex" horiz-adv-x="341" d="M157 68T157 57Q157 36 171 29T225 20L221 0Q175 3 94 3Q10 3 -33 0L-28 20Q7 22 24 28T52 51T73 106L205 602Q213 636 213 650Q213 672 199 679T146 688L151 708Q192 705 278 705Q358
705 406 708L401 688Q364 686 347 680T319 657T298 602L166 106Q157 68 157 57ZM185 793T90 772L85 786Q157 808 219 842T320 916H338Q366 868 397 837T477 786L473 772Q419 782 386 795T328 822T296 840Q185 793 90 772Z" />
<glyph unicode="&#xcf;" glyph-name="Idieresis" horiz-adv-x="341" d="M157 68T157 57Q157 36 171 29T225 20L221 0Q175 3 94 3Q10 3 -33 0L-28 20Q7 22 24 28T52 51T73 106L205 602Q213 636 213 650Q213 672 199 679T146 688L151 708Q192 705 278 705Q358 705
406 708L401 688Q364 686 347 680T319 657T298 602L166 106Q157 68 157 57ZM145 847T165 867T212 888Q233 888 247 874T262 838Q262 813 242 793T195 772Q173 772 159 786T145 823Q145 847 165 867ZM357 847T377 867T424 888Q445 888 459 874T474 838Q474 813 454
793T407 772Q385 772 371 786T357 823Q357 847 377 867Z" />
<glyph unicode="&#xd0;" glyph-name="Eth" horiz-adv-x="725" d="M704 362T642 250T472 69T230 0L172 1Q116 3 90 3Q9 3 -30 0L-27 20Q7 22 24 28T52 51T73 106L204 602Q213 640 213 651Q213 671 199 679T146 688L149 708Q183 705 246 705L331 706Q399 708 422
708Q563 708 633 652T704 487Q704 362 642 250ZM342 18T430 85T563 266T608 512Q608 603 557 646T394 690Q363 690 346 683T317 658T297 604L166 104Q157 68 157 55Q157 36 170 27T218 18Q342 18 430 85ZM432 341H20L26 366H438L432 341Z" />
<glyph unicode="&#xd1;" glyph-name="Ntilde" horiz-adv-x="770" d="M844 754T858 740T872 703Q872 676 856 654T813 631Q793 631 784 642T775 670Q775 686 784 703T807 733H804Q755 732 722 682Q678 616 630 450T521 -5H499L271 639Q222 388 179 215T95 -11Q73
-40 49 -57T-12 -74Q-72 -74 -72 -22Q-72 5 -56 27T-13 49Q7 49 16 38T25 10Q25 -6 16 -23T-7 -53H-4Q47 -52 79 -1Q116 58 156 210T243 602Q249 631 249 647Q249 671 233 678T172 688L177 708Q209 705 266 705Q312 705 347 708L536 155Q579 347 620 487T704 690Q748
754 812 754Q844 754 858 740ZM505 895T526 885T573 855Q594 838 609 830T646 822Q684 822 716 880L734 875Q712 823 677 798T604 772Q572 772 551 782T504 812Q483 829 468 837T431 845Q393 845 361 787L343 792Q365 844 400 869T473 895Q505 895 526 885Z" />
<glyph unicode="&#xd2;" glyph-name="Ograve" horiz-adv-x="729" d="M54 339T107 455T255 646T471 722Q583 722 645 659T707 481Q707 368 654 253T504 62T289 -14Q178 -14 116 49T54 226Q54 339 107 455ZM387 704T317 632T203 446T160 213Q160 116 198 60T298
4Q373 4 443 76T557 262T600 495Q600 592 562 648T462 704Q387 704 317 632ZM454 802T397 843Q357 870 337 889Q318 908 318 928Q318 940 325 948Q334 958 348 958Q359 958 371 952T391 937Q407 920 433 879Q482 809 505 779L495 769Q454 802 397 843Z" />
<glyph unicode="&#xd3;" glyph-name="Oacute" horiz-adv-x="729" d="M54 339T107 455T255 646T471 722Q583 722 645 659T707 481Q707 368 654 253T504 62T289 -14Q178 -14 116 49T54 226Q54 339 107 455ZM387 704T317 632T203 446T160 213Q160 116 198 60T298
4Q373 4 443 76T557 262T600 495Q600 592 562 648T462 704Q387 704 317 632ZM493 812T528 838T575 873Q624 911 647 925Q665 936 685 936Q706 936 713 920Q715 914 715 910Q715 897 705 886T680 866Q661 855 634 845T601 832Q514 799 458 772L451 783Q493 812 528
838Z" />
<glyph unicode="&#xd4;" glyph-name="Ocircumflex" horiz-adv-x="729" d="M54 339T107 455T255 646T471 722Q583 722 645 659T707 481Q707 368 654 253T504 62T289 -14Q178 -14 116 49T54 226Q54 339 107 455ZM387 704T317 632T203 446T160 213Q160 116 198 60T298
4Q373 4 443 76T557 262T600 495Q600 592 562 648T462 704Q387 704 317 632ZM366 793T271 772L266 786Q338 808 400 842T501 916H519Q547 868 578 837T658 786L654 772Q600 782 567 795T509 822T477 840Q366 793 271 772Z" />
<glyph unicode="&#xd5;" glyph-name="Otilde" horiz-adv-x="729" d="M54 339T107 455T255 646T471 722Q583 722 645 659T707 481Q707 368 654 253T504 62T289 -14Q178 -14 116 49T54 226Q54 339 107 455ZM387 704T317 632T203 446T160 213Q160 116 198 60T298
4Q373 4 443 76T557 262T600 495Q600 592 562 648T462 704Q387 704 317 632ZM460 895T481 885T528 855Q549 838 564 830T601 822Q639 822 671 880L689 875Q667 823 632 798T559 772Q527 772 506 782T459 812Q438 829 423 837T386 845Q348 845 316 787L298 792Q320
844 355 869T428 895Q460 895 481 885Z" />
<glyph unicode="&#xd6;" glyph-name="Odieresis" horiz-adv-x="729" d="M54 339T107 455T255 646T471 722Q583 722 645 659T707 481Q707 368 654 253T504 62T289 -14Q178 -14 116 49T54 226Q54 339 107 455ZM387 704T317 632T203 446T160 213Q160 116 198 60T298
4Q373 4 443 76T557 262T600 495Q600 592 562 648T462 704Q387 704 317 632ZM326 847T346 867T393 888Q414 888 428 874T443 838Q443 813 423 793T376 772Q354 772 340 786T326 823Q326 847 346 867ZM538 847T558 867T605 888Q626 888 640 874T655 838Q655 813
635 793T588 772Q566 772 552 786T538 823Q538 847 558 867Z" />
<glyph unicode="&#xd7;" glyph-name="multiply" horiz-adv-x="513" d="M250 355L125 530L151 548L274 373L501 550L517 528L290 352L415 179L390 161L266 334L42 160L27 182L250 355Z" />
<glyph unicode="&#xd8;" glyph-name="Oslash" horiz-adv-x="729" d="M666 633Q707 574 707 481Q707 368 654 253T504 62T289 -14Q176 -14 114 51L-3 -73L-20 -59L99 68Q54 129 54 226Q54 339 107 455T255 646T471 722Q592 722 654 649L772 773L787 760L666 633ZM387
704T317 632T203 446T160 213Q160 171 168 133L589 587Q573 643 540 673T462 704Q387 704 317 632ZM373 4T443 76T557 262T600 495Q600 532 594 562L175 108Q191 59 223 32T298 4Q373 4 443 76Z" />
<glyph unicode="&#xd9;" glyph-name="Ugrave" horiz-adv-x="682" d="M638 617T638 636Q638 664 621 675T564 688L569 708Q604 705 670 705Q729 705 764 708L759 688Q724 686 705 678T674 650T653 592L575 291Q539 153 477 79Q440 36 387 11T272 -14Q165 -14 118
40Q100 61 92 85T83 142Q83 196 108 288L191 602Q199 636 199 650Q199 672 185 679T132 688L138 708Q178 705 267 705Q344 705 392 708L386 688Q349 686 332 680T304 657T283 602L195 271Q173 186 173 136Q173 81 200 51T291 21Q396 21 456 89T549 280L631 592Q638
617 638 636ZM464 802T407 843Q367 870 347 889Q328 908 328 928Q328 940 335 948Q344 958 358 958Q369 958 381 952T401 937Q417 920 443 879Q492 809 515 779L505 769Q464 802 407 843Z" />
<glyph unicode="&#xda;" glyph-name="Uacute" horiz-adv-x="682" d="M638 617T638 636Q638 664 621 675T564 688L569 708Q604 705 670 705Q729 705 764 708L759 688Q724 686 705 678T674 650T653 592L575 291Q539 153 477 79Q440 36 387 11T272 -14Q165 -14 118
40Q100 61 92 85T83 142Q83 196 108 288L191 602Q199 636 199 650Q199 672 185 679T132 688L138 708Q178 705 267 705Q344 705 392 708L386 688Q349 686 332 680T304 657T283 602L195 271Q173 186 173 136Q173 81 200 51T291 21Q396 21 456 89T549 280L631 592Q638
617 638 636ZM503 812T538 838T585 873Q634 911 657 925Q675 936 695 936Q716 936 723 920Q725 914 725 910Q725 897 715 886T690 866Q671 855 644 845T611 832Q524 799 468 772L461 783Q503 812 538 838Z" />
<glyph unicode="&#xdb;" glyph-name="Ucircumflex" horiz-adv-x="682" d="M638 617T638 636Q638 664 621 675T564 688L569 708Q604 705 670 705Q729 705 764 708L759 688Q724 686 705 678T674 650T653 592L575 291Q539 153 477 79Q440 36 387 11T272 -14Q165 -14
118 40Q100 61 92 85T83 142Q83 196 108 288L191 602Q199 636 199 650Q199 672 185 679T132 688L138 708Q178 705 267 705Q344 705 392 708L386 688Q349 686 332 680T304 657T283 602L195 271Q173 186 173 136Q173 81 200 51T291 21Q396 21 456 89T549 280L631
592Q638 617 638 636ZM376 793T281 772L276 786Q348 808 410 842T511 916H529Q557 868 588 837T668 786L664 772Q610 782 577 795T519 822T487 840Q376 793 281 772Z" />
<glyph unicode="&#xdc;" glyph-name="Udieresis" horiz-adv-x="682" d="M638 617T638 636Q638 664 621 675T564 688L569 708Q604 705 670 705Q729 705 764 708L759 688Q724 686 705 678T674 650T653 592L575 291Q539 153 477 79Q440 36 387 11T272 -14Q165 -14
118 40Q100 61 92 85T83 142Q83 196 108 288L191 602Q199 636 199 650Q199 672 185 679T132 688L138 708Q178 705 267 705Q344 705 392 708L386 688Q349 686 332 680T304 657T283 602L195 271Q173 186 173 136Q173 81 200 51T291 21Q396 21 456 89T549 280L631
592Q638 617 638 636ZM336 847T356 867T403 888Q424 888 438 874T453 838Q453 813 433 793T386 772Q364 772 350 786T336 823Q336 847 356 867ZM548 847T568 867T615 888Q636 888 650 874T665 838Q665 813 645 793T598 772Q576 772 562 786T548 823Q548 847 568
867Z" />
<glyph unicode="&#xdd;" glyph-name="Yacute" horiz-adv-x="670" d="M729 722T742 707T756 669Q756 644 741 622T697 599Q677 599 668 610T659 639Q659 655 668 671T691 701H688Q661 700 633 679Q581 641 521 557T404 338L346 106Q338 72 338 58Q338 36 352 29T405
20L400 0Q355 3 276 3Q189 3 145 0L150 20Q186 22 204 28T233 51T253 106L312 339Q296 481 269 574T195 667Q178 667 167 656T147 620L119 538H97L130 635Q146 682 166 702T228 722Q281 722 313 679T364 559T395 360Q432 453 480 528T582 657Q647 722 700 722Q729
722 742 707ZM499 812T534 838T581 873Q630 911 653 925Q671 936 691 936Q712 936 719 920Q721 914 721 910Q721 897 711 886T686 866Q667 855 640 845T607 832Q520 799 464 772L457 783Q499 812 534 838Z" />
<glyph unicode="&#xde;" glyph-name="Thorn" horiz-adv-x="605" d="M166 106Q157 68 157 57Q157 36 171 29T225 20L221 0Q175 3 94 3Q10 3 -33 0L-28 20Q7 22 24 28T52 51T73 106L205 602Q213 636 213 650Q213 672 199 679T146 688L151 708Q192 705 278 705Q358
705 406 708L401 688Q364 686 347 680T319 657T298 602L290 573Q360 575 396 575Q494 575 544 535T595 424Q595 346 548 284T414 187T218 152H178L166 106ZM184 172H228Q368 172 431 245T494 440Q494 499 464 527T367 556Q318 556 285 553L184 172Z" />
<glyph unicode="&#xdf;" glyph-name="germandbls" horiz-adv-x="547" d="M323 767T296 727T242 589L41 -174Q-13 -176 -49 -188L133 507Q158 603 188 662T264 751T381 782Q451 782 484 753T517 681Q517 638 490 602T409 518L385 495Q351 464 351 420Q351 390 363
367T401 311L417 290Q445 252 460 217T476 145Q476 98 452 62T387 6T297 -14Q245 -14 207 8T169 72Q169 94 180 107T208 120Q232 120 241 99T251 52Q251 38 245 14Q267 6 287 6Q333 6 362 34T392 110Q392 175 340 241Q335 248 316 271T286 318T275 369Q275 401
290 422T338 471Q369 499 376 507Q440 574 440 661Q440 714 420 740T366 767Q323 767 296 727Z" />
<glyph unicode="&#xe0;" glyph-name="agrave" horiz-adv-x="523" d="M455 163H474L449 90Q429 35 398 11T334 -14Q315 -14 301 -7T279 12Q270 27 270 47Q270 68 277 94T286 127L304 199Q256 87 207 37T103 -14Q57 -14 33 19T9 107Q9 188 52 288T164 458T304 528Q331
528 348 508T368 452L384 514Q439 516 476 528L351 86Q350 82 347 71T344 49Q344 24 366 24Q410 24 443 126L455 163ZM160 18T199 61T275 175T337 328L355 399Q356 407 356 421Q356 462 342 485T301 509Q258 509 210 443T130 279T97 95Q97 54 106 36T132 18Q160
18 199 61ZM316 650T261 717Q256 723 239 744T210 784Q200 801 200 816Q200 836 216 844Q223 847 232 847Q257 847 275 816Q285 799 308 741Q334 672 366 605L353 599Q316 650 261 717Z" />
<glyph unicode="&#xe1;" glyph-name="aacute" horiz-adv-x="523" d="M455 163H474L449 90Q429 35 398 11T334 -14Q315 -14 301 -7T279 12Q270 27 270 47Q270 68 277 94T286 127L304 199Q256 87 207 37T103 -14Q57 -14 33 19T9 107Q9 188 52 288T164 458T304 528Q331
528 348 508T368 452L384 514Q439 516 476 528L351 86Q350 82 347 71T344 49Q344 24 366 24Q410 24 443 126L455 163ZM160 18T199 61T275 175T337 328L355 399Q356 407 356 421Q356 462 342 485T301 509Q258 509 210 443T130 279T97 95Q97 54 106 36T132 18Q160
18 199 61ZM333 655T386 726Q424 778 444 798Q463 820 485 820Q499 820 507 813Q515 805 515 794Q515 774 492 751Q470 728 424 696Q417 691 382 664T304 599L294 608Q333 655 386 726Z" />
<glyph unicode="&#xe2;" glyph-name="acircumflex" horiz-adv-x="523" d="M455 163H474L449 90Q429 35 398 11T334 -14Q315 -14 301 -7T279 12Q270 27 270 47Q270 68 277 94T286 127L304 199Q256 87 207 37T103 -14Q57 -14 33 19T9 107Q9 188 52 288T164 458T304
528Q331 528 348 508T368 452L384 514Q439 516 476 528L351 86Q350 82 347 71T344 49Q344 24 366 24Q410 24 443 126L455 163ZM160 18T199 61T275 175T337 328L355 399Q356 407 356 421Q356 462 342 485T301 509Q258 509 210 443T130 279T97 95Q97 54 106 36T132
18Q160 18 199 61ZM308 690T262 662T171 616L166 630Q231 658 288 704T381 802H399Q410 739 437 699T518 630L514 616Q456 632 419 657T346 720Q308 690 262 662Z" />
<glyph unicode="&#xe3;" glyph-name="atilde" horiz-adv-x="523" d="M455 163H474L449 90Q429 35 398 11T334 -14Q315 -14 301 -7T279 12Q270 27 270 47Q270 68 277 94T286 127L304 199Q256 87 207 37T103 -14Q57 -14 33 19T9 107Q9 188 52 288T164 458T304 528Q331
528 348 508T368 452L384 514Q439 516 476 528L351 86Q350 82 347 71T344 49Q344 24 366 24Q410 24 443 126L455 163ZM160 18T199 61T275 175T337 328L355 399Q356 407 356 421Q356 462 342 485T301 509Q258 509 210 443T130 279T97 95Q97 54 106 36T132 18Q160
18 199 61ZM338 768T357 758T397 728Q416 711 429 703T462 695Q500 695 532 753L550 748Q528 696 493 671T420 645Q391 645 372 655T332 685Q313 702 300 710T267 718Q229 718 197 660L179 665Q201 717 236 742T309 768Q338 768 357 758Z" />
<glyph unicode="&#xe4;" glyph-name="adieresis" horiz-adv-x="523" d="M455 163H474L449 90Q429 35 398 11T334 -14Q315 -14 301 -7T279 12Q270 27 270 47Q270 68 277 94T286 127L304 199Q256 87 207 37T103 -14Q57 -14 33 19T9 107Q9 188 52 288T164 458T304
528Q331 528 348 508T368 452L384 514Q439 516 476 528L351 86Q350 82 347 71T344 49Q344 24 366 24Q410 24 443 126L455 163ZM160 18T199 61T275 175T337 328L355 399Q356 407 356 421Q356 462 342 485T301 509Q258 509 210 443T130 279T97 95Q97 54 106 36T132
18Q160 18 199 61ZM209 702T229 722T276 743Q297 743 311 729T326 693Q326 668 306 648T259 627Q237 627 223 641T209 678Q209 702 229 722ZM421 702T441 722T488 743Q509 743 523 729T538 693Q538 668 518 648T471 627Q449 627 435 641T421 678Q421 702 441 722Z"
/>
<glyph unicode="&#xe5;" glyph-name="aring" horiz-adv-x="523" d="M455 163H474L449 90Q429 35 398 11T334 -14Q315 -14 301 -7T279 12Q270 27 270 47Q270 68 277 94T286 127L304 199Q256 87 207 37T103 -14Q57 -14 33 19T9 107Q9 188 52 288T164 458T304 528Q331
528 348 508T368 452L384 514Q439 516 476 528L351 86Q350 82 347 71T344 49Q344 24 366 24Q410 24 443 126L455 163ZM160 18T199 61T275 175T337 328L355 399Q356 407 356 421Q356 462 342 485T301 509Q258 509 210 443T130 279T97 95Q97 54 106 36T132 18Q160
18 199 61ZM428 791T452 769T477 711Q477 669 444 639T365 608Q329 608 306 629T282 688Q282 731 314 761T391 791Q428 791 452 769ZM401 629T426 653T451 712Q451 739 432 754T387 770Q356 770 332 746T308 689Q308 661 326 645T369 629Q401 629 426 653Z" />
<glyph unicode="&#xe6;" glyph-name="ae" horiz-adv-x="659" d="M645 374T555 316T345 220Q335 167 335 124Q335 28 404 28Q486 28 554 128L574 120Q542 65 488 26T373 -14Q324 -14 292 8T247 75Q190 -14 103 -14Q53 -14 28 16T3 97Q3 183 57 282T195 450T358
518Q377 518 394 510T424 483Q485 528 551 528Q593 528 619 509T645 452Q645 374 555 316ZM500 509T464 472T397 372T349 239Q448 274 487 304Q524 333 544 374T565 464Q565 485 556 497T529 509Q500 509 464 472ZM160 18T188 37T243 97Q241 117 241 127Q241 179
262 244T323 371T411 473Q394 497 365 497Q312 497 247 437T136 281T91 85Q91 54 102 36T135 18Q160 18 188 37Z" />
<glyph unicode="&#xe7;" glyph-name="ccedilla" horiz-adv-x="432" d="M273 508T224 454T143 311T111 124Q111 75 129 52T181 28Q263 28 331 128L351 120Q319 65 265 26T150 -14Q89 -14 54 23T18 133Q18 214 56 307T163 464T320 528Q366 528 397 505T428 443Q428
412 408 388T357 363Q337 363 327 374T316 402Q316 430 338 450T391 477Q370 508 323 508Q273 508 224 454ZM123 -72Q142 -65 164 -65Q184 -65 195 -75T207 -105Q207 -145 169 -166T84 -188Q58 -188 37 -182T4 -166L11 -151Q40 -164 71 -164Q94 -164 118 -152T143
-113Q143 -89 115 -89Q99 -89 84 -96L130 0H157L123 -72Z" />
<glyph unicode="&#xe8;" glyph-name="egrave" horiz-adv-x="429" d="M416 381T325 320T117 221Q106 171 106 124Q106 28 175 28Q261 28 329 128L345 120Q313 65 259 26T144 -14Q82 -14 47 22T12 127Q12 203 56 298T177 461T342 528Q374 528 395 511T416 462Q416
381 325 320ZM288 509T249 472T175 372T122 240Q217 273 258 304Q295 333 315 374T336 464Q336 491 332 500T320 509Q288 509 249 472ZM291 650T236 717Q231 723 214 744T185 784Q175 801 175 816Q175 836 191 844Q198 847 207 847Q232 847 250 816Q260 799 283
741Q309 672 341 605L328 599Q291 650 236 717Z" />
<glyph unicode="&#xe9;" glyph-name="eacute" horiz-adv-x="429" d="M416 381T325 320T117 221Q106 171 106 124Q106 28 175 28Q261 28 329 128L345 120Q313 65 259 26T144 -14Q82 -14 47 22T12 127Q12 203 56 298T177 461T342 528Q374 528 395 511T416 462Q416
381 325 320ZM288 509T249 472T175 372T122 240Q217 273 258 304Q295 333 315 374T336 464Q336 491 332 500T320 509Q288 509 249 472ZM308 655T361 726Q399 778 419 798Q438 820 460 820Q474 820 482 813Q490 805 490 794Q490 774 467 751Q445 728 399 696Q392
691 357 664T279 599L269 608Q308 655 361 726Z" />
<glyph unicode="&#xea;" glyph-name="ecircumflex" horiz-adv-x="429" d="M416 381T325 320T117 221Q106 171 106 124Q106 28 175 28Q261 28 329 128L345 120Q313 65 259 26T144 -14Q82 -14 47 22T12 127Q12 203 56 298T177 461T342 528Q374 528 395 511T416 462Q416
381 325 320ZM288 509T249 472T175 372T122 240Q217 273 258 304Q295 333 315 374T336 464Q336 491 332 500T320 509Q288 509 249 472ZM283 690T237 662T146 616L141 630Q206 658 263 704T356 802H374Q385 739 412 699T493 630L489 616Q431 632 394 657T321 720Q283
690 237 662Z" />
<glyph unicode="&#xeb;" glyph-name="edieresis" horiz-adv-x="429" d="M416 381T325 320T117 221Q106 171 106 124Q106 28 175 28Q261 28 329 128L345 120Q313 65 259 26T144 -14Q82 -14 47 22T12 127Q12 203 56 298T177 461T342 528Q374 528 395 511T416 462Q416
381 325 320ZM288 509T249 472T175 372T122 240Q217 273 258 304Q295 333 315 374T336 464Q336 491 332 500T320 509Q288 509 249 472ZM184 702T204 722T251 743Q272 743 286 729T301 693Q301 668 281 648T234 627Q212 627 198 641T184 678Q184 702 204 722ZM396
702T416 722T463 743Q484 743 498 729T513 693Q513 668 493 648T446 627Q424 627 410 641T396 678Q396 702 416 722Z" />
<glyph unicode="&#xec;" glyph-name="igrave" horiz-adv-x="302" d="M166 453T166 466Q166 491 144 491Q121 491 103 467T65 389L51 352H32L58 425Q78 482 111 505T182 528Q248 528 248 465Q248 432 232 388L125 85Q117 61 117 48Q117 23 141 23Q162 23 180 46T219
125L233 162H252L226 89Q206 34 174 10T103 -14Q33 -14 33 47Q33 76 51 126L158 429Q166 453 166 466ZM185 650T130 717Q125 723 108 744T79 784Q69 801 69 816Q69 836 85 844Q92 847 101 847Q126 847 144 816Q154 799 177 741Q203 672 235 605L222 599Q185 650
130 717Z" />
<glyph unicode="&#xed;" glyph-name="iacute" horiz-adv-x="302" d="M166 453T166 466Q166 491 144 491Q121 491 103 467T65 389L51 352H32L58 425Q78 482 111 505T182 528Q248 528 248 465Q248 432 232 388L125 85Q117 61 117 48Q117 23 141 23Q162 23 180 46T219
125L233 162H252L226 89Q206 34 174 10T103 -14Q33 -14 33 47Q33 76 51 126L158 429Q166 453 166 466ZM202 655T255 726Q293 778 313 798Q332 820 354 820Q368 820 376 813Q384 805 384 794Q384 774 361 751Q339 728 293 696Q286 691 251 664T173 599L163 608Q202
655 255 726Z" />
<glyph unicode="&#xee;" glyph-name="icircumflex" horiz-adv-x="302" d="M166 453T166 466Q166 491 144 491Q121 491 103 467T65 389L51 352H32L58 425Q78 482 111 505T182 528Q248 528 248 465Q248 432 232 388L125 85Q117 61 117 48Q117 23 141 23Q162 23 180
46T219 125L233 162H252L226 89Q206 34 174 10T103 -14Q33 -14 33 47Q33 76 51 126L158 429Q166 453 166 466ZM177 690T131 662T40 616L35 630Q100 658 157 704T250 802H268Q279 739 306 699T387 630L383 616Q325 632 288 657T215 720Q177 690 131 662Z" />
<glyph unicode="&#xef;" glyph-name="idieresis" horiz-adv-x="302" d="M166 453T166 466Q166 491 144 491Q121 491 103 467T65 389L51 352H32L58 425Q78 482 111 505T182 528Q248 528 248 465Q248 432 232 388L125 85Q117 61 117 48Q117 23 141 23Q162 23 180
46T219 125L233 162H252L226 89Q206 34 174 10T103 -14Q33 -14 33 47Q33 76 51 126L158 429Q166 453 166 466ZM78 702T98 722T145 743Q166 743 180 729T195 693Q195 668 175 648T128 627Q106 627 92 641T78 678Q78 702 98 722ZM290 702T310 722T357 743Q378 743
392 729T407 693Q407 668 387 648T340 627Q318 627 304 641T290 678Q290 702 310 722Z" />
<glyph unicode="&#xf0;" glyph-name="eth" horiz-adv-x="487" d="M345 675Q447 568 447 394Q447 304 413 209T312 50T158 -14Q94 -14 58 25T21 143Q21 221 55 312T154 465T301 528Q332 528 354 513Q340 593 299 654L114 572L108 590L287 669Q242 725 165 765L177
782Q270 747 331 689L491 760L497 742L345 675ZM215 6T260 71T333 233T361 421Q361 449 357 493Q338 508 301 508Q251 508 207 443T135 280T107 93Q107 48 121 27T164 6Q215 6 260 71Z" />
<glyph unicode="&#xf1;" glyph-name="ntilde" horiz-adv-x="580" d="M530 162L505 89Q469 -14 384 -14Q339 -14 321 15Q313 27 313 48Q313 75 330 126L425 412Q435 445 435 461Q435 496 403 496Q365 496 317 441T221 288T140 73L122 0H35L155 429Q162 455 162
466Q162 491 140 491Q118 491 101 469T63 389L50 352H31L56 425Q92 528 175 528Q207 528 220 513T234 469Q234 442 220 388L185 251Q249 402 307 465T436 528Q517 528 517 453Q517 420 502 377L405 85Q397 61 397 47Q397 23 421 23Q441 23 459 45T498 125L511 162H530ZM350
768T369 758T409 728Q428 711 441 703T474 695Q512 695 544 753L562 748Q540 696 505 671T432 645Q403 645 384 655T344 685Q325 702 312 710T279 718Q241 718 209 660L191 665Q213 717 248 742T321 768Q350 768 369 758Z" />
<glyph unicode="&#xf2;" glyph-name="ograve" horiz-adv-x="488" d="M21 222T56 312T157 465T310 528Q374 528 410 489T447 371Q447 292 412 202T311 49T158 -14Q94 -14 58 25T21 143Q21 222 56 312ZM253 508T208 443T135 281T107 93Q107 48 121 27T164 6Q215
6 260 71T333 233T361 421Q361 466 347 487T304 508Q253 508 208 443ZM311 650T256 717Q251 723 234 744T205 784Q195 801 195 816Q195 836 211 844Q218 847 227 847Q252 847 270 816Q280 799 303 741Q329 672 361 605L348 599Q311 650 256 717Z" />
<glyph unicode="&#xf3;" glyph-name="oacute" horiz-adv-x="488" d="M21 222T56 312T157 465T310 528Q374 528 410 489T447 371Q447 292 412 202T311 49T158 -14Q94 -14 58 25T21 143Q21 222 56 312ZM253 508T208 443T135 281T107 93Q107 48 121 27T164 6Q215
6 260 71T333 233T361 421Q361 466 347 487T304 508Q253 508 208 443ZM328 655T381 726Q419 778 439 798Q458 820 480 820Q494 820 502 813Q510 805 510 794Q510 774 487 751Q465 728 419 696Q412 691 377 664T299 599L289 608Q328 655 381 726Z" />
<glyph unicode="&#xf4;" glyph-name="ocircumflex" horiz-adv-x="488" d="M21 222T56 312T157 465T310 528Q374 528 410 489T447 371Q447 292 412 202T311 49T158 -14Q94 -14 58 25T21 143Q21 222 56 312ZM253 508T208 443T135 281T107 93Q107 48 121 27T164 6Q215
6 260 71T333 233T361 421Q361 466 347 487T304 508Q253 508 208 443ZM303 690T257 662T166 616L161 630Q226 658 283 704T376 802H394Q405 739 432 699T513 630L509 616Q451 632 414 657T341 720Q303 690 257 662Z" />
<glyph unicode="&#xf5;" glyph-name="otilde" horiz-adv-x="488" d="M21 222T56 312T157 465T310 528Q374 528 410 489T447 371Q447 292 412 202T311 49T158 -14Q94 -14 58 25T21 143Q21 222 56 312ZM253 508T208 443T135 281T107 93Q107 48 121 27T164 6Q215
6 260 71T333 233T361 421Q361 466 347 487T304 508Q253 508 208 443ZM333 768T352 758T392 728Q411 711 424 703T457 695Q495 695 527 753L545 748Q523 696 488 671T415 645Q386 645 367 655T327 685Q308 702 295 710T262 718Q224 718 192 660L174 665Q196 717
231 742T304 768Q333 768 352 758Z" />
<glyph unicode="&#xf6;" glyph-name="odieresis" horiz-adv-x="488" d="M21 222T56 312T157 465T310 528Q374 528 410 489T447 371Q447 292 412 202T311 49T158 -14Q94 -14 58 25T21 143Q21 222 56 312ZM253 508T208 443T135 281T107 93Q107 48 121 27T164 6Q215
6 260 71T333 233T361 421Q361 466 347 487T304 508Q253 508 208 443ZM204 702T224 722T271 743Q292 743 306 729T321 693Q321 668 301 648T254 627Q232 627 218 641T204 678Q204 702 224 722ZM416 702T436 722T483 743Q504 743 518 729T533 693Q533 668 513 648T466
627Q444 627 430 641T416 678Q416 702 436 722Z" />
<glyph unicode="&#xf7;" glyph-name="divide" horiz-adv-x="657" d="M332 510T355 532T405 554Q424 554 435 543T447 514Q447 486 424 465T373 444Q354 444 343 455T332 483Q332 510 355 532ZM96 370H597L588 340H87L96 370ZM249 222T272 244T322 266Q341 266
352 255T364 226Q364 198 341 177T290 155Q272 155 261 166T249 195Q249 222 272 244Z" />
<glyph unicode="&#xf8;" glyph-name="oslash" horiz-adv-x="488" d="M421 474Q447 436 447 371Q447 292 412 202T311 49T158 -14Q91 -14 55 28L-29 -73L-43 -60L43 45Q21 84 21 143Q21 222 56 312T157 465T310 528Q374 528 410 489L490 586L503 574L421 474ZM255
508T211 448T139 295T107 113L360 440Q356 508 304 508Q255 508 211 448ZM215 6T259 68T331 226T361 411L107 80Q111 6 164 6Q215 6 259 68Z" />
<glyph unicode="&#xf9;" glyph-name="ugrave" horiz-adv-x="567" d="M499 162H518L493 89Q457 -14 372 -14Q356 -14 342 -7T321 13Q315 27 315 44Q315 70 329 126L360 251Q302 108 247 47T127 -14Q43 -14 43 63Q43 95 57 137L154 429Q162 453 162 466Q162 491
138 491Q118 491 100 469T61 389L48 352H29L54 425Q90 528 175 528Q245 528 245 466Q245 436 229 388L134 102Q124 72 124 52Q124 18 156 18Q195 18 242 75T335 235T415 465L427 514Q484 516 518 528L394 85Q387 59 387 46Q387 23 408 23Q430 23 448 46T486 125L499
162ZM301 650T246 717Q241 723 224 744T195 784Q185 801 185 816Q185 836 201 844Q208 847 217 847Q242 847 260 816Q270 799 293 741Q319 672 351 605L338 599Q301 650 246 717Z" />
<glyph unicode="&#xfa;" glyph-name="uacute" horiz-adv-x="567" d="M499 162H518L493 89Q457 -14 372 -14Q356 -14 342 -7T321 13Q315 27 315 44Q315 70 329 126L360 251Q302 108 247 47T127 -14Q43 -14 43 63Q43 95 57 137L154 429Q162 453 162 466Q162 491
138 491Q118 491 100 469T61 389L48 352H29L54 425Q90 528 175 528Q245 528 245 466Q245 436 229 388L134 102Q124 72 124 52Q124 18 156 18Q195 18 242 75T335 235T415 465L427 514Q484 516 518 528L394 85Q387 59 387 46Q387 23 408 23Q430 23 448 46T486 125L499
162ZM318 655T371 726Q409 778 429 798Q448 820 470 820Q484 820 492 813Q500 805 500 794Q500 774 477 751Q455 728 409 696Q402 691 367 664T289 599L279 608Q318 655 371 726Z" />
<glyph unicode="&#xfb;" glyph-name="ucircumflex" horiz-adv-x="567" d="M499 162H518L493 89Q457 -14 372 -14Q356 -14 342 -7T321 13Q315 27 315 44Q315 70 329 126L360 251Q302 108 247 47T127 -14Q43 -14 43 63Q43 95 57 137L154 429Q162 453 162 466Q162
491 138 491Q118 491 100 469T61 389L48 352H29L54 425Q90 528 175 528Q245 528 245 466Q245 436 229 388L134 102Q124 72 124 52Q124 18 156 18Q195 18 242 75T335 235T415 465L427 514Q484 516 518 528L394 85Q387 59 387 46Q387 23 408 23Q430 23 448 46T486
125L499 162ZM293 690T247 662T156 616L151 630Q216 658 273 704T366 802H384Q395 739 422 699T503 630L499 616Q441 632 404 657T331 720Q293 690 247 662Z" />
<glyph unicode="&#xfc;" glyph-name="udieresis" horiz-adv-x="567" d="M499 162H518L493 89Q457 -14 372 -14Q356 -14 342 -7T321 13Q315 27 315 44Q315 70 329 126L360 251Q302 108 247 47T127 -14Q43 -14 43 63Q43 95 57 137L154 429Q162 453 162 466Q162 491
138 491Q118 491 100 469T61 389L48 352H29L54 425Q90 528 175 528Q245 528 245 466Q245 436 229 388L134 102Q124 72 124 52Q124 18 156 18Q195 18 242 75T335 235T415 465L427 514Q484 516 518 528L394 85Q387 59 387 46Q387 23 408 23Q430 23 448 46T486 125L499
162ZM194 702T214 722T261 743Q282 743 296 729T311 693Q311 668 291 648T244 627Q222 627 208 641T194 678Q194 702 214 722ZM406 702T426 722T473 743Q494 743 508 729T523 693Q523 668 503 648T456 627Q434 627 420 641T406 678Q406 702 426 722Z" />
<glyph unicode="&#xfd;" glyph-name="yacute" horiz-adv-x="481" d="M458 528T458 447Q458 352 399 227T261 3Q168 -113 64 -163Q11 -188 -23 -188Q-44 -188 -58 -177T-73 -147Q-73 -126 -57 -114T-19 -102Q2 -102 21 -112T64 -141Q142 -99 214 -21L140 427Q135
458 128 470T108 482Q95 482 82 463T49 390L36 353H17L42 426Q77 528 157 528Q189 528 205 508T229 436L280 60Q335 136 375 219T431 385Q401 401 378 424T355 477Q355 500 369 514T406 528Q458 528 458 447ZM286 655T339 726Q377 778 397 798Q416 820 438 820Q452
820 460 813Q468 805 468 794Q468 774 445 751Q423 728 377 696Q370 691 335 664T257 599L247 608Q286 655 339 726Z" />
<glyph unicode="&#xfe;" glyph-name="thorn" horiz-adv-x="551" d="M458 528T485 493T513 387Q513 306 477 212T374 52T220 -14Q192 -14 171 1T139 44L101 -88Q97 -100 97 -112Q97 -138 119 -149T182 -160L176 -181L155 -180Q68 -177 42 -177Q15 -177 -69 -181L-63
-160Q-27 -160 -11 -147T15 -98L203 568Q173 502 133 451T33 344L22 357Q70 404 101 439T164 526T227 652L263 781Q317 783 354 795L228 355Q272 447 315 487T409 528Q458 528 485 493ZM272 9T320 75T397 237T427 409Q427 452 415 474T380 496Q354 496 320 463T253
372T197 249L146 69Q159 36 176 23T219 9Q272 9 320 75Z" />
<glyph unicode="&#xff;" glyph-name="ydieresis" horiz-adv-x="481" d="M458 528T458 447Q458 352 399 227T261 3Q168 -113 64 -163Q11 -188 -23 -188Q-44 -188 -58 -177T-73 -147Q-73 -126 -57 -114T-19 -102Q2 -102 21 -112T64 -141Q142 -99 214 -21L140 427Q135
458 128 470T108 482Q95 482 82 463T49 390L36 353H17L42 426Q77 528 157 528Q189 528 205 508T229 436L280 60Q335 136 375 219T431 385Q401 401 378 424T355 477Q355 500 369 514T406 528Q458 528 458 447ZM162 702T182 722T229 743Q250 743 264 729T279 693Q279
668 259 648T212 627Q190 627 176 641T162 678Q162 702 182 722ZM374 702T394 722T441 743Q462 743 476 729T491 693Q491 668 471 648T424 627Q402 627 388 641T374 678Q374 702 394 722Z" />
<glyph unicode="&#x2013;" glyph-name="endash" horiz-adv-x="728" d="M661 284L650 244H50L60 284H661Z" />
<glyph unicode="&#x2014;" glyph-name="emdash" horiz-adv-x="1002" d="M935 284L924 244H50L60 284H935Z" />
<glyph unicode="&#x2018;" glyph-name="quoteleft" horiz-adv-x="239" d="M123 592T162 643T270 728L275 714Q228 685 200 651T169 583Q198 608 221 608Q239 608 249 599T259 573Q259 552 246 530T211 494T167 480Q145 480 134 497T123 539Q123 592 162 643Z" />
<glyph unicode="&#x2019;" glyph-name="quoteright" horiz-adv-x="240" d="M277 598T238 547T130 462L125 476Q172 505 200 539T231 607Q202 582 179 582Q161 582 151 591T141 617Q141 638 154 660T189 696T233 710Q255 710 266 693T277 651Q277 598 238 547Z" />
<glyph unicode="&#x201a;" glyph-name="quotesinglbase" horiz-adv-x="252" d="M129 2T90 -49T-18 -134L-23 -120Q24 -91 52 -57T83 11Q54 -14 31 -14Q13 -14 3 -5T-7 21Q-7 42 6 64T41 100T85 114Q107 114 118 97T129 55Q129 2 90 -49Z" />
<glyph unicode="&#x201c;" glyph-name="quotedblleft" horiz-adv-x="399" d="M290 593T329 644T437 729L442 715Q395 686 367 652T336 584Q365 609 388 609Q401 609 408 600T416 574Q416 553 404 531T373 495T334 481Q290 481 290 540Q290 593 329 644ZM124 593T163
644T271 729L276 715Q229 686 201 652T170 584Q199 609 222 609Q235 609 242 600T250 574Q250 553 238 531T207 495T168 481Q124 481 124 540Q124 593 163 644Z" />
<glyph unicode="&#x201d;" glyph-name="quotedblright" horiz-adv-x="401" d="M273 601T234 550T126 465L121 479Q168 508 196 542T227 610Q198 585 175 585Q162 585 155 594T147 620Q147 641 159 663T190 699T229 713Q273 713 273 654Q273 601 234 550ZM439 601T400
550T292 465L287 479Q334 508 362 542T393 610Q364 585 341 585Q328 585 321 594T313 620Q313 641 325 663T356 699T395 713Q439 713 439 654Q439 601 400 550Z" />
<glyph unicode="&#x201e;" glyph-name="quotedblbase" horiz-adv-x="409" d="M120 2T81 -49T-27 -134L-32 -120Q15 -91 43 -57T74 11Q45 -14 22 -14Q9 -14 2 -5T-6 21Q-6 42 6 64T37 100T76 114Q120 114 120 55Q120 2 81 -49ZM286 2T247 -49T139 -134L134 -120Q181
-91 209 -57T240 11Q211 -14 188 -14Q175 -14 168 -5T160 21Q160 42 172 64T203 100T242 114Q286 114 286 55Q286 2 247 -49Z" />
<glyph unicode="&#x2022;" glyph-name="bullet" horiz-adv-x="445" d="M67 276T89 312T147 370T225 392Q280 392 317 356T354 265Q354 223 332 187T274 129T196 107Q141 107 104 143T67 234Q67 276 89 312Z" />
<glyph unicode="&#x2039;" glyph-name="guilsinglleft" horiz-adv-x="352" d="M285 459T219 371T99 244Q140 210 182 130T240 -14H222Q135 157 24 243V245Q101 299 168 369T300 528H318Q285 459 219 371Z" />
<glyph unicode="&#x203a;" glyph-name="guilsinglright" horiz-adv-x="351" d="M199 355T309 270V269Q232 215 165 145T33 -14H15Q48 55 114 143T234 270Q193 304 151 384T93 528H111Q199 355 309 270Z" />
</font>
</defs>
</svg>
